<?xml version="1.0" standalone="no"?>
<!DOCTYPE svg PUBLIC "-//W3C//DTD SVG 1.1//EN" "../../../../../www.w3.org/Graphics/SVG/1.1/DTD/svg11.dtd" >
<svg xmlns="http://www.w3.org/2000/svg">
<metadata></metadata>
<defs>
<font id="weather_iconsregular" horiz-adv-x="1514" >
<font-face units-per-em="2048" ascent="1755" descent="-293" />
<missing-glyph horiz-adv-x="685" />
<glyph horiz-adv-x="2048" />
<glyph horiz-adv-x="2048" />
<glyph unicode="&#xd;" horiz-adv-x="2048" />
<glyph unicode=" "  horiz-adv-x="685" />
<glyph unicode="&#x09;" horiz-adv-x="685" />
<glyph unicode="&#xa0;" horiz-adv-x="685" />
<glyph unicode="&#x2000;" horiz-adv-x="1122" />
<glyph unicode="&#x2001;" horiz-adv-x="2245" />
<glyph unicode="&#x2002;" horiz-adv-x="1122" />
<glyph unicode="&#x2003;" horiz-adv-x="2245" />
<glyph unicode="&#x2004;" horiz-adv-x="748" />
<glyph unicode="&#x2005;" horiz-adv-x="561" />
<glyph unicode="&#x2006;" horiz-adv-x="374" />
<glyph unicode="&#x2007;" horiz-adv-x="374" />
<glyph unicode="&#x2008;" horiz-adv-x="280" />
<glyph unicode="&#x2009;" horiz-adv-x="449" />
<glyph unicode="&#x200a;" horiz-adv-x="124" />
<glyph unicode="&#x202f;" horiz-adv-x="449" />
<glyph unicode="&#x205f;" horiz-adv-x="561" />
<glyph unicode="&#x25fc;" horiz-adv-x="571" d="M0 0z" />
<glyph unicode="&#xf000;" horiz-adv-x="3126" d="M0 90q0 -38 29 -64q27 -27 65 -27h627q41 0 72.5 -30t31.5 -73t-31.5 -74t-72.5 -31t-73 32q-29 26 -65 26q-38 0 -64 -25.5t-26 -63.5t26 -64q85 -85 202 -85q118 0 201 83.5t83 201.5t-83 202t-201 84h-627q-38 0 -66 -27.5t-28 -64.5zM0 411q0 -35 29 -61 q27 -27 65 -27h1170q118 0 201.5 83.5t83.5 201.5t-83 200t-202 82q-121 0 -201 -81q-25 -26 -25 -65t24.5 -63.5t63.5 -24.5q38 0 66 25q30 30 72 30t72.5 -30t30.5 -73t-30.5 -74t-72.5 -31h-1170q-38 0 -66 -27.5t-28 -64.5zM283 662q0 -13 18 -13h153q11 0 21 15 q36 87 111.5 143.5t170.5 63.5l56 8q20 0 20 18l7 55q17 173 146 289t304 116q176 0 305.5 -115.5t147.5 -289.5l7 -62q0 -19 19 -19h174q144 0 245.5 -100.5t101.5 -242.5q0 -143 -101.5 -244.5t-245.5 -101.5h-736q-20 0 -20 -19v-146q0 -18 20 -18h736q143 0 264.5 71 t192 193t70.5 265q0 118 -45 216q121 159 121 353q0 150 -75.5 279t-204.5 204.5t-279 75.5q-247 0 -412 -185q-128 65 -285 65q-225 0 -398 -139.5t-220 -356.5q-136 -32 -240.5 -131t-145.5 -234v-4q-3 -5 -3 -9zM1155 1838q0 -37 29 -64l65 -69q26 -26 65 -26 q40 0 65.5 24.5t25.5 64.5q0 38 -24 64l-70 69q-25 28 -63 28t-65.5 -27t-27.5 -64zM1723 1368q115 109 264 109q155 0 267.5 -112t112.5 -268q0 -104 -55 -195q-153 153 -369 153h-36q-38 173 -184 313zM1896 1927q0 -37 26.5 -62.5t64.5 -25.5t65 25.5t27 62.5v218 q0 38 -27 65t-65 27t-64.5 -27t-26.5 -65v-218zM2488 1685q0 -39 24 -64q27 -27 65 -27.5t61 27.5l156 153q27 27 27 65q0 37 -27 64t-65 27t-64 -26l-153 -157q-24 -25 -24 -62zM2570 423q0 -37 27 -64l68 -69q32 -26 66 -26q31 0 63 26q27 27 27 64q0 35 -27 65l-68 69 q-26 26 -62 26q-40 0 -67 -26.5t-27 -64.5zM2731 1097q0 -38 27 -63q24 -28 61 -28h216q38 0 65 27t27 64t-27.5 64.5t-64.5 27.5h-216q-38 0 -63 -27t-25 -65z" />
<glyph unicode="&#xf001;" horiz-adv-x="3105" d="M0 94q0 -39 26 -65q70 -29 94 -29h840q38 0 64.5 27.5t26.5 65.5q0 37 -26.5 62.5t-64.5 25.5h-840q-42 0 0F4D899A78" />
<glyph unicode="&#xf002;" horiz-adv-x="2867" d="M0 528q0 -144 70.5 -266t191.5 -192.5t264 -70.5h1155q143 0 265 70.5t193 192.5t71 266q0 106 -45 213q122 149 122 353q0 114 -44 217.5t-119 178.5t-178.5 119t-217.5 44q-237 0 -414 -186q-124 70 -288 70q-225 0 -398 -139.5t-222 -357.5q-179 -41 -292.5 -184 t-113.5 -328zM182 528q0 134 89.5 231t224.5 113l53 3q20 0 20 19l7 58q22 173 150 289.5t300 116.5q176 0 306.5 -117t146.5 -289l8 -62q4 -18 22 -18h172q141 0 243 -102t102 -242q0 -145 -101.5 -247.5t-243.5 -102.5h-1155q-140 0 -242 103.5t-102 246.5zM897 1837 q0 -39 26 -67l70 -68q40 -30 68 -27q33 0 59 27.5t26 66.5t-28 63l-63 70q-29 26 -65 26q-39 0 -66 -26.5t-27 -64.5zM1467 1365q111 107 261 107q158 0 268.5 -110t110.5 -268q0 -100 -54 -196q-155 153 -372 153h-34q-40 174 -180 314zM1640 1928q0 -41 25 -66t63 -25 q41 0 66 25t25 66v218q0 38 -25.5 63t-65.5 25q-38 0 -63 -25t-25 -63v-218zM2229 1683q0 -41 24 -66q34 -26 66 -26q29 0 63 26l153 153q26 29 26 68q0 38 -26 64t-63 26q-38 0 -62 -26l-157 -153q-24 -28 -24 -66zM2314 421q0 -38 27 -67l69 -67q24 -26 62 -26t63.5 26.5 t25.5 66.5q0 36 -26 62l-69 69q-26 26 -61 26q-38 0 -64.5 -26t-26.5 -64zM2470 1094q0 -37 28 -62q26 -26 65 -26h218q37 0 61.5 25t24.5 63t-24.5 64.5t-61.5 26.5h-218q-38 0 -65.5 -27t-27.5 -64z" />
<glyph unicode="&#xf003;" horiz-adv-x="3132" d="M0 85q0 -37 27 -62.5t67 -25.5h1996q38 0 65 25.5t27 62.5q0 38 -27 64.5t-65 26.5h-1996q-40 0 -67 -26.50406E7CA69" />
<glyph unicode="&#xf004;" horiz-adv-x="2884" d="M0 530q0 -214 149 -367.5t363 -163.5q19 0 19 18v143q0 19 -19 19q-137 7 -233.5 109.5t-96.5 241.5q0 13302A771BA38" />
<glyph unicode="&#xf005;" horiz-adv-x="2868" d="M0 528q0 -213 148.5 -366t362.5 -163q18 0 18 18v146q0 19 -18 19q-139 11 -234 110.5t-95 235.5q0 134 90.5 233.5t223.5 110.5l56 8q21 0 21 18l6 54q17 173 146.5 289.5t305.5 116.5q174 0 303.5 -116t148.5 -290l7 -62q0 -18 20 -18h171q145 0 247.5 -101t102.5 -243 q0 -136 -95 -235.5t-234 -110.5q-21 0 -21 -19v-146q0 -18 21 -18q213 7 360.5 161t147.5 368q0 108 -50 221q127 151 127 349q0 114 -44.5 217.5t-119.5 178.5t-178.5 119t-216.5 44q-247 0 -414 -185q-137 66 -283 66q-227 0 -401.5 -139t-223.5 -359 q-176 -41 -291 -184.5t-115 -327.5zM800 -674h32l567 837q6 7 2.5 14.5t-14.5 7.5h-233l245 449q12 23 -15 23h-314q-13 0 -23 -15l-230 -610q-4 -22 15 -22h231zM894 1841q0 -40 26 -66l70 -69q67 -51 129 0q26 29 26 68q0 37 -26 63l-68 69q-30 27 -66 27q-37 0 -64 -27 t-27 -65zM1464 1369q109 109 264 109q156 0 266 -111t110 -269q0 -97 -54 -193q-156 150 -369 150h-33q-43 182 -184 314zM1637 1933q0 -40 25.5 -66t65.5 -26q38 0 63 25.5t25 66.5v218q0 38 -25 63t-63 25t-64.5 -25t-26.5 -63v-218zM2225 1686q0 -37 29 -64t59 -27 q26 0 66 27l154 153q27 29 27 67q0 39 -26.5 65t-64.5 26q-35 0 -62 -27l-153 -153q-29 -31 -29 -67zM2312 425q0 -37 26 -65l69 -70q26 -26 62 -26q38 0 64.5 27t26.5 67q0 36 -27 61l-66 70q-30 25 -66 25q-37 0 -63 -26t-26 -63zM2467 1098q0 -35 28 -61q27 -27 64 -27 h218q38 0 65 25.5t27 62.5q0 38 -27.5 65t-64.5 27h-218q-37 0 -64.5 -27t-27.5 -65z" />
<glyph unicode="&#xf006;" horiz-adv-x="2885" d="M0 523q0 -212 146 -363t360 -161q19 0 19 18v142q0 19 -19 19q-137 7 -231 106.5t-94 238.5q0 135 90 234t224 110l56 8q17 0 17 15l8 59q20 175 147.5 290t302.5 115t305.5 -115t147.5 -287l7 -62q4 -18 23 -18h171q142 0 244 -102.5t102 -246.5q0 -139 -94 -238.5 t-231 -106.5q-21 0 -21 -19v-142q0 -18 21 -18q213 7 359 159t146 365q0 108 -41 214q124 154 124 357q0 113 -44 216.5t-119 178.5t-178.5 119.5t-217.5 44.5q-246 0 -412 -186q-143 70 -292 70q-226 0 -398.5 -140t-221.5 -360q-180 -41 -293 -184.5t-113 -329.5z M571 -227q0 -27 17.5 -54t50.5 -37q37 -11 68.5 4t42.5 60l15 65q8 36 -10.5 67.5t-55.5 42.5q-36 11 -68 -8t-42 -57l-15 -63q-3 -9 -3 -20zM653 82q0 -35 26 -61q25 -27 60 -27q38 0 64.5 25.5t26.5 62.5t-26.5 62.5t-64.5 25.5q-37 0 -61.5 -25t-24.5 -63zM718 325 q-2 -25 14 -48.5t51 -34.5q33 -10 66.5 7.5t44.5 54.5l29 96q12 39 -7 69.5t-58 41.5q-35 11 -67.5 -7t-43.5 -53l-26 -98q-3 -27 -3 -28zM841 -560q0 -27 17 -52.5t52 -35.5q13 -3 26 -3q69 0 85 65l14 63q10 41 -9 73t-56 39q-34 11 -67 -7.5t-44 -54.5l-14 -63 q-4 -18 -4 -24zM901 1834q0 -38 26 -64l70 -68q22 -25 57.5 -27.5t66.5 27.5q26 26 26 63q0 38 -26 64l-67 69q-25 25 -63 28q-37 0 -63.5 -27t-26.5 -65zM925 -250q0 -36 26 -62t62 -26q38 0 63 25t25 63q0 37 -25 62t-63 25t-63 -25t-25 -62zM991 -8q-2 -24 14.5 -50 t48.5 -32q37 -10 68 6t44 60l28 96q11 35 -7.5 67t-56.5 43q-35 11 -68 -8.5t-44 -56.5l-24 -96q-3 -14 -3 -29zM1286 -237q0 -27 16 -51.5t49 -34.5q5 0 15 -2t15 -2q65 0 81 70l15 64q11 34 -7.5 67t-54.5 44q-40 10 -72.5 -8.5t-43.5 -56.5l-10 -63q0 -2 -1.5 -12 t-1.5 -15zM1365 78q0 -37 26 -61q24 -26 62 -26t63 25t25 62q0 38 -25 63t-63 25t-63 -25t-25 -63zM1430 325q0 -27 17 -51.5t52 -34.5q3 0 13 -2t15 -2q17 0 39 10q33 17 43 56l26 96q10 36 -7.5 67.5t-53.5 42.5q-37 11 -68.5 -6t-42.5 -54l-30 -97q0 -3 -1.5 -11.5 t-1.5 -13.5zM1467 1361q106 106 263 106q158 0 269 -108.5t111 -264.5q0 -106 -57 -200q-157 157 -373 157h-33q-45 175 -180 310zM1643 1923q0 -37 24.5 -61.5t62.5 -24.5q39 0 66 24.5t27 61.5v220q0 37 -27.5 64t-65.5 27q-37 0 -62 -26.5t-25 -64.5v-220zM2232 1681 q0 -40 24 -64q57 -57 129 0l153 153q27 27 27 67q0 38 -26.5 64.5t-64.5 26.5q-37 0 -65 -26l-153 -158q-24 -23 -24 -63zM2315 417q0 -37 29 -63l65 -67q32 -26 65 -26q32 0 64 26q27 25 27 63q0 36 -27 66l-69 65q-24 27 -61 27t-64 -27q-29 -27 -29 -64zM2473 1094 q0 -38 28 -63q29 -29 66 -29h216q37 0 62.5 27t25.5 65t-25.5 64.5t-62.5 26.5h-216q-38 0 -66 -27t-28 -64z" />
<glyph unicode="&#xf007;" horiz-adv-x="2885" d="M0 527q0 -180 107 -321.5t275 -188.5q15 -2 26 8l125 150q-143 0 -245 103.5t-102 248.5q0 133 90.5 231t2046ECFBAC8" />
<glyph unicode="&#xf008;" horiz-adv-x="2877" d="M0 529q0 -213 148.5 -366.5t363.5 -163.5q18 0 18 18v143q0 18 -18 18q-137 7 -233.5 109.5t-96.5 241.5q005A5D53A67" />
<glyph unicode="&#xf009;" horiz-adv-x="2868" d="M0 530q0 -213 148.5 -365.5t362.5 -163.5q18 0 18 18v143q0 19 -18 19q-136 7 -231 108.5t-95 240.5q0 134 89.5 231t224.5 113l53 4q21 0 21 19l6 57q17 173 146.5 289.5t305.5 116.5q175 0 305 -116.5t146 -289.5l8 -61q0 -19 19 -19h178q140 0 242 -102t102 -242 q0 -136 -95.5 -237t-230.5 -112q-18 0 -18 -19v-143q0 -18 18 -18q140 4 256 76.5t182.5 192t66.5 260.5q0 114 -44 209q121 150 121 350q0 114 -44 217.5t-119 178.5t-178.5 119t-217.5 44q-241 0 -406 -177q-127 68 -291 68q-226 0 -399.5 -139.5t-220.5 -357.5 q-180 -41 -295.5 -184t-115.5 -328zM578 -184q0 -29 17 -57t48 -38q31 -11 65.5 6.5t46.5 58.5l27 112q11 33 -7.5 66.5t-54.5 44.5q-40 10 -72 -9t-39 -57l-30 -106q-1 -7 -1 -21zM717 319q0 -61 68 -84q35 -12 68 5.5t44 56.5l26 110q11 33 -7 66t-54 45q-39 10 -71 -8.5 t-39 -55.5l-32 -109q-3 -14 -3 -26zM847 -522q0 -26 18 -53t52 -38q1 0 10.5 -1.5t15.5 -1.5q22 0 39 8q30 13 44 62l29 106q11 37 -7.5 69.5t-54.5 42.5q-37 11 -69.5 -7.5t-42.5 -54.5l-30 -109q-4 -16 -4 -23zM896 1832q0 -40 27 -66l70 -69q54 -54 125 0q26 28 26 65 t-26 65l-67 70q-26 26 -64 26q-37 0 -64 -26.5t-27 -64.5zM991 -11q0 -27 17 -54t50 -37q37 -11 68 5t43 60l26 108q11 37 -6.5 69.5t-53.5 43.5q-40 11 -72.5 -8.5t-39.5 -56.5l-30 -110q-2 -6 -2 -20zM1288 -195q4 -60 67 -88l27 -4q26 0 50.5 17t34.5 53l31 108 q10 38 -9.5 70.5t-56.5 39.5q-33 11 -66 -7.5t-44 -54.5l-29 -109zM1437 313q0 -26 16.5 -51.5t48.5 -34.5l27 -3q31 0 55 19t30 50l29 106q11 38 -7 69.5t-54 41.5q-37 11 -68.5 -6.5t-41.5 -53.5l-32 -113q-3 -13 -3 -24zM1472 1365q106 102 256 102q157 0 268 -110.5 t111 -267.5q0 -90 -50 -188q-153 153 -370 153h-36q-43 181 -179 311zM1637 1923q0 -40 25.5 -65.5t65.5 -25.5t65.5 25.5t25.5 65.5v215q0 40 -25.5 66t-65.5 26t-65.5 -26t-25.5 -66v-215zM2229 1678q0 -40 24 -65q33 -27 66 -27q30 0 63 27l153 153q26 29 26 67t-26 64 t-63 26t-65 -26l-154 -153q-24 -28 -24 -66zM2313 416q0 -37 28 -67l66 -68q33 -33 66 -33q31 0 62 33q29 29 28 65.5t-28 63.5l-69 70q-26 26 -61 26q-38 0 -65 -26.5t-27 -63.5zM2470 1089q0 -36 26 -62t62 -26h218q41 0 67 25t26 63q0 40 -26.5 66t-66.5 26h-218 q-37 0 -62.5 -27t-25.5 -65z" />
<glyph unicode="&#xf00a;" horiz-adv-x="2864" d="M0 525q0 -138 68 -257t185.5 -191t256.5 -76q18 0 18 18v142q0 20 -18 20q-136 7 -232.5 108.5t-96.5 235.5q0 132 90.5 230t223.5 114l56 6q19 0 19 20l8 54q17 175 145.5 291.5t303.5 116.5q174 0 304.5 -116.5t147.5 -288.5l8 -62q0 -18 18 -18h172q144 0 246 -102.5 t102 -244.5q0 -134 -96.5 -235.5t-231.5 -108.5q-20 0 -20 -20v-142q0 -18 20 -18q212 7 360 160t148 364q0 121 -46 217q126 151 126 352q0 150 -75 278.5t-204 203.5t-279 75q-246 0 -413 -185q-130 70 -287 70q-225 0 -399 -139.5t-223 -356.5q-179 -44 -292 -187 t-113 -328zM677 93q0 -38 25.5 -65t62.5 -27t62.5 27t25.5 65q0 36 -25.5 62t-62.5 26t-62.5 -26t-25.5 -62zM677 -294q0 -33 26 -61q28 -26 62 -26q38 0 63 25t25 62q0 38 -25.5 63t-62.5 25t-62.5 -25t-25.5 -63zM895 1832q0 -39 26 -63l70 -70q26 -26 57 -27 q33 -5 65 23.5t32 67.5t-26 68l-68 65q-24 27 -62 27q-40 0 -67 -26.5t-27 -64.5zM1016 -112q0 -36 26 -64q26 -26 62 -26q38 0 64.5 26t26.5 64q0 37 -26.5 63.5t-64.5 26.5q-36 0 -62 -26.5t-26 -63.5zM1016 272q0 -36 26 -62t62 -26q38 0 64.5 25.5t26.5 62.5t-26.5 63 t-64.5 26q-36 0 -62 -26t-26 -63zM1016 -502q0 -35 26 -61q27 -27 62 -27q38 0 64.5 25t26.5 63t-26.5 64.5t-64.5 26.5q-35 0 -61.5 -27t-26.5 -64zM1360 93q0 -38 26 -65t63 -27t62.5 27t25.5 65q0 36 -25.5 62t-62.5 26t-63 -26t-26 -62zM1360 -294q0 -34 25 -61 q28 -26 64 -26q38 0 63 25t25 62q0 38 -25.5 63t-62.5 25q-38 0 -63.5 -25.5t-25.5 -62.5zM1464 1365q110 106 263 106q155 0 265 -111t110 -266q0 -100 -54 -196q-153 153 -371 153h-34q-47 187 -179 314zM1635 1921q0 -37 27 -62t65 -25t63 25t25 62v218q0 38 -25.5 65 t-62.5 27t-64.5 -27.5t-27.5 -64.5v-218zM2223 1679q0 -37 27 -63q24 -25 59.5 -27.5t66.5 27.5l153 153q28 28 28 65q0 38 -27.5 65t-64.5 27q-35 0 -62 -27l-153 -156q-27 -25 -27 -64zM2309 421q0 -40 26 -66l68 -67q39 -26 68 -26q33 0 59.5 27.5t26.5 65.5q0 36 -28 62 l-66 69q-28 26 -65 26t-63 -26.5t-26 -64.5zM2463 1094q0 -38 28 -63q27 -29 66 -29h216q37 0 64 27t27 65t-27 64.5t-64 26.5h-216q-38 0 -66 -27t-28 -64z" />
<glyph unicode="&#xf00b;" horiz-adv-x="2864" d="M0 529q0 -139 68 -258.5t185 -191.5t256 -78q19 0 19 18v142q0 20 -19 20q-136 7 -232 108.5t-96 239.5q0 132 90 229.5t223 113.5l56 3q20 0 20 19l8 58q17 173 145.5 289t303.5 116q172 0 302.5 -116.5t149.5 -288.5l7 -62q0 -18 18 -18h173q141 0 244.5 -102 t103.5 -241q0 -138 -96 -239.5t-233 -108.5q-19 0 -19 -20v-142q0 -18 19 -18q139 4 256 76.5t184 192.5t67 259q0 118 -44 213q124 152 124 352q0 151 -75 279.5t-203 203t-278 74.5q-248 0 -413 -185q-131 70 -287 70q-225 0 -399 -139.5t-223 -356.5 q-176 -42 -290.5 -185t-114.5 -326zM630 435q0 -61 45 -104t108 -43q64 0 107 42.5t43 104.5q0 39 -37.5 107t-69.5 106q-34 36 -43 45l-38 -43q-43 -46 -79 -110t-36 -105zM895 1834q0 -41 26 -65l69 -70q67 -50 129 0q26 31 26 68t-26 63l-68 69q-30 27 -65 27 q-39 0 -65 -27t-26 -65zM947 13q0 -105 72.5 -176.5t175.5 -71.5q104 0 177 73t73 175q0 86 -86 210q-74 97 -136 159q-13 9 -28 24l-25 -24q-57 -52 -136 -157q-87 -121 -87 -212zM1104 719q0 -40 30.5 -69t73.5 -29q41 0 70 29t29 69q0 66 -99 171l-26 -27 q-29 -32 -53.5 -74.5t-24.5 -69.5zM1464 1365q106 106 263 106q156 0 265.5 -110t109.5 -267q0 -94 -55 -196q-155 153 -370 153h-35q-46 186 -178 314zM1635 1926q0 -38 27.5 -65t64.5 -27t62 27t25 65v217q0 38 -24.5 63t-62.5 25t-65 -25t-27 -63v-217zM2223 1679 q0 -39 27 -63q28 -26 60 -26q28 0 65 26l153 153q29 29 29 66q0 39 -27 65t-65 26q-35 0 -62 -27l-153 -153q-27 -27 -27 -67zM2309 423q0 -40 25 -68l69 -62q23 -29 63 -29q39 0 62 29q29 26 29 62q0 35 -29 62l-65 69q-28 26 -65 26q-38 0 -63.5 -26t-25.5 -63zM2463 1094 q0 -36 27 -62q28 -26 67 -26h216q38 0 64.5 25.5t26.5 62.5q0 38 -27 64.5t-64 26.5h-216q-38 0 -66 -27t-28 -64z" />
<glyph unicode="&#xf00c;" horiz-adv-x="2541" d="M0 899q0 -43 30 -71t77 -28h180q43 0 73.5 28.5t30.5 70.5q0 46 -30 76t-74 30h-180q-47 0 -77 -29.5t-30 0A2E804A26" />
<glyph unicode="&#xf00d;" horiz-adv-x="2267" d="M0 771q0 39 27 66q28 26 64 26h218q37 0 61.5 -27t24.5 -65t-24.5 -64.5t-61.5 -26.5h-218q-37 0 -64 27t-0A2394EAB4" />
<glyph unicode="&#xf00e;" horiz-adv-x="2883" d="M0 530q0 -179 106.5 -320t275.5 -188l-70 -181q-8 -23 15 -23h227l-152 -449h31l465 604q6 7 2 14.5t-15 707913A3ADF" />
<glyph unicode="&#xf010;" horiz-adv-x="2875" d="M0 528q0 -177 105 -316t274 -190l-68 -181q-7 -22 15 -22h226l-133 -421h31l445 575q6 7 1.5 14.5t-15.5 70C9F76DA57" />
<glyph unicode="&#xf011;" horiz-adv-x="2428" d="M0 90q0 40 27 67q28 26 64 26h578q118 0 201.5 -84.5t83.5 -202.5q0 -119 -83 -202.5t-202 -83.5t-203 84q-25 25 -25 64t24.5 64.5t64.5 25.5q37 0 65 -26q32 -31 74 -31t73 30.5t31 74.5q0 42 -31 72.5t-73 30.5h-578q-37 0 -64 26.5t-27 64.5zM0 414q0 39 27 66 q28 26 64 26h1125q42 0 73 31t31 74t-31 73.5t-73 30.5q-44 0 -73 -30q-29 -24 -68 -24t-63.5 24.5t-24.5 63.5q0 40 24 65q81 81 205 81q119 0 202.5 -83t83.5 -201t-83.5 -201.5t-202.5 -83.5h-1125q-38 0 -64.5 25.5t-26.5 62.5zM229 666q0 -13 17 -13h154q13 0 23 16 q36 87 112 144t170 64l56 8q21 0 21 18l8 55q17 173 146.5 290.5t305.5 117.5q177 0 307 -116.5t148 -291.5l8 -63q0 -18 18 -18h173q145 0 248.5 -102t103.5 -245t-103.5 -245t-248.5 -102h-737q-20 0 -20 -18v-148q0 -18 20 -18h737q145 0 267.5 71t194 193.5t71.5 266.5 q0 145 -71.5 267t-194 193t-267.5 71h-33q-50 213 -223.5 349t-397.5 136q-226 0 -400 -140.5t-221 -359.5q-137 -32 -243 -131.5t-147 -235.5v-4q-2 -5 -2 -9z" />
<glyph unicode="&#xf012;" horiz-adv-x="2539" d="M0 87q0 39 27 65t67 26h957q38 0 63 -25.5t25 -65.5q0 -38 -25.5 -63.5t-62.5 -25.5h-957q-40 0 -67 25.5t-27 63.5zM281 413q0 38 29 64q23 24 63 24h960q37 0 61.5 -25t24.5 -63t-24.5 -65t-61.5 -27h-960q-37 0 -64.5 27.5t-27.5 64.5zM347 662q0 -15 18 -15h152 q15 0 25 15q36 87 111 144t168 64l58 7q18 0 18 19l7 55q18 174 148.5 290t306.5 116q174 0 302 -114.5t150 -288.5l8 -63q0 -17 19 -17h171q145 0 247.5 -102t102.5 -247q0 -140 -104 -243.5t-246 -103.5h-735q-19 0 -19 -18v-143q0 -19 19 -19h735q108 0 206.5 41.5 t169 112.5t112.5 168.5t42 204.5q0 144 -70.5 265.5t-192.5 192t-267 70.5h-33q-52 215 -224.5 351.5t-392.5 136.5q-227 0 -401.5 -141.5t-221.5 -361.5q-138 -31 -242 -129.5t-145 -236.5v-2q-2 -4 -2 -8zM469 -243q0 39 28 64q24 25 63 25h959q39 0 65.5 -25.5 t26.5 -63.5t-27 -65t-65 -27h-959q-37 0 -64 27t-27 65z" />
<glyph unicode="&#xf013;" horiz-adv-x="2370" d="M0 454q0 159 99 282.5t254 158.5q41 188 190 307.5t343 119.5q189 0 337.5 -116.5t192.5 -298.5h29q188 0 321 -132.5t133 -320.5t-133 -321.5t-321 -133.5h-990q-92 0 -176.5 36t-145.5 97t-97 145.5t-36 176.5zM155 454q0 -122 88 -209.5t212 -87.5h990q124 0 212 87.5 t88 209.5t-88 209t-212 87h-148q-16 0 -16 16l-7 52q-16 151 -126.5 250.5t-261.5 99.5t-262.5 -100t-125.5 -250l-7 -45q0 -16 -17 -16l-48 -7q-115 -10 -193 -95t-78 -201zM1099 1384q-16 -15 8 -22q69 -30 115 -59q18 -5 24 3q97 92 226 92t223.5 -86.5t105.5 -213.5 l10 -68h151q104 0 179 -74.5t75 -177.5q0 -96 -66 -167t-163 -82q-16 0 -16 -17v-121q0 -17 16 -17q161 10 272 127t111 277q0 169 -119.5 288.5t-288.5 119.5h-16q-42 160 -175.5 263.5t-298.5 103.5q-226 0 -373 -169z" />
<glyph unicode="&#xf014;" horiz-adv-x="2641" d="M0 86q0 39 27 65t67 26h1991q40 0 65.5 -25.5t25.5 -65.5q0 -37 -26.5 -62t-64.5 -25h-1991q-40 0 -67 25t0EBE100AB8" />
<glyph unicode="&#xf015;" horiz-adv-x="2210" d="M0 528q0 -213 148.5 -366t362.5 -163q18 0 18 18v143q0 18 -18 18q-137 7 -233 109t-96 241q0 132 90 230t0378CE1A08" />
<glyph unicode="&#xf016;" horiz-adv-x="1502" d="M0 -283h42l734 1086q15 29 -16 29h-303l319 581q14 29 -21 29h-406q-17 0 -31 -19l-296 -789q-4 -29 20 -29h293zM907 392h29l557 818q8 13 4 21t-18 8h-224l233 430q19 32 -19 32h-292q-21 0 -32 -20l-222 -585q-5 -14 1 -22t20 -8h218z" />
<glyph unicode="&#xf017;" horiz-adv-x="2209" d="M0 522q0 -211 149 -364t361 -160q19 0 19 18v142q0 19 -19 19q-135 7 -232 108.5t-97 236.5q0 134 90.5 230626D56A60" />
<glyph unicode="&#xf018;" horiz-adv-x="2213" d="M0 525q0 -179 104.5 -318.5t272.5 -190.5q14 -3 26 8l124 153q-142 0 -243 102t-101 246q0 135 90 234.5t224 110.5l56 7q17 0 17 14l8 59q20 176 148.5 291.5t303.5 115.5q176 0 306.5 -116.5t146.5 -290.5l8 -62q4 -18 23 -18h173q144 0 245 -101t101 -244 q0 -133 -90 -232.5t-221 -115.5q-19 0 -52 -6q-31 -3 -44 -24l-252 -298q-23 -29 -17.5 -67t33.5 -61q17 -20 60 -20q42 0 65 37l226 260q199 20 336 172t137 355q0 108 -41.5 206t-112 168.5t-168 112.5t-205.5 42h-34q-53 212 -226.5 347.5t-396.5 135.5 q-149 0 -280.5 -63.5t-221.5 -177t-121 -258.5q-180 -40 -293.5 -183.5t-113.5 -329.5zM361 -330q0 -10 6 -32q14 -34 47 -47q35 -16 71 -2t49 48q16 35 2 69t-49 46q-36 17 -69 3t-49 -50q-8 -17 -8 -35zM558 -70v-11q3 -36 32 -60q36 -20 66 -20q36 0 65 35l248 295 q23 28 21 70q-4 34 -29.5 57t-55.5 23q-9 0 -15 -1q-37 -7 -60 -35l-252 -296q-20 -23 -20 -57zM640 -573q0 -19 8 -34q13 -34 47 -50q17 -8 35 -8q20 0 33 8q37 15 50 44q16 35 2.5 71t-47.5 49q-35 16 -71.5 2t-48.5 -48q-8 -15 -8 -34zM818 -323v-12q4 -35 33 -58.5 t59 -23.5q36 0 67 35l464 559q18 20 18 55v13q-4 36 -29 57t-56 21h-14q-37 -2 -59 -33l-464 -555q-19 -28 -19 -58zM1193 -446q0 -14 6 -32q14 -35 49 -50q22 -6 33 -6q23 0 36 8q36 14 49 45q16 27 2 71q-13 33 -47 47l-38 10q-14 -3 -34 -8q-35 -13 -48 -47 q-8 -19 -8 -38z" />
<glyph unicode="&#xf019;" horiz-adv-x="2211" d="M0 527q0 184 115 327.5t291 184.5q50 218 225 358t400 140q220 0 392.5 -136.5t224.5 -350.5h34q143 0 26502FAB98A1A" />
<glyph unicode="&#xf01a;" horiz-adv-x="2218" d="M0 525q0 185 116 329t297 185q47 220 221 361.5t400 141.5q223 0 396.5 -136t226.5 -352h36q144 0 265 -7001E7CAEA8B" />
<glyph unicode="&#xf01b;" horiz-adv-x="2211" d="M0 523q0 185 113.5 328.5t292.5 187.5q50 218 224.5 358t400.5 140q220 0 392.5 -136.5t224.5 -350.5h34q1072688BA1D" />
<glyph unicode="&#xf01c;" horiz-adv-x="2210" d="M0 527q0 184 115 327.5t291 184.5q49 218 224 357.5t401 139.5q220 0 392 -136t225 -350h33q143 0 265 -6906D4E0CA0B" />
<glyph unicode="&#xf01d;" horiz-adv-x="2212" d="M0 527q0 -177 105.5 -317t273.5 -191l-69 -179q-5 -23 15 -23h227l-111 -403h30l423 557q6 7 2 14.5t-15 7.5h-232l264 495q10 22 -15 22h-314q-15 0 -24 -15l-115 -306q-114 29 -188.5 124t-74.5 214q0 133 90 230.5t224 113.5l56 8q21 0 21 18l8 55q16 173 145.5 290 t304.5 117q174 0 304.5 -117t149.5 -290l6 -62q0 -19 20 -19h172q145 0 247.5 -101t102.5 -243q0 -136 -95 -235.5t-234 -109.5q-21 0 -21 -20v-146q0 -18 21 -18q104 3 198.5 47t162.5 114.5t108 167t40 200.5q0 144 -71.5 265.5t-193.5 192t-265 70.5h-34 q-53 213 -225 348t-393 135q-226 0 -401 -140t-224 -358q-176 -41 -291 -184.5t-115 -328.5zM870 -525q0 -25 16.5 -49.5t49.5 -34.5q22 -5 27 -5q14 0 40 11q34 15 45 56l30 112q10 35 -8.5 67t-56.5 43q-35 10 -67.5 -8.5t-43.5 -56.5l-29 -107q-3 -27 -3 -28zM1013 -16 q0 -23 16.5 -46.5t48.5 -35.5q36 -12 68 5t43 56l32 111q10 35 -9 67.5t-57 43.5q-36 10 -69 -8.5t-44 -55.5l-26 -108q-3 -27 -3 -29zM1314 -192q0 -27 17.5 -54t50.5 -37q4 0 12.5 -2t12.5 -2q21 0 40 8q30 11 44 61l27 108q11 37 -6.5 70.5t-53.5 44.5q-40 10 -72.5 -9 t-39.5 -57l-29 -110q-3 -9 -3 -21zM1459 319q-1 -25 16 -50t52 -40q12 -6 28 -6q17 0 36 9q33 16 47 61l31 110q3 21 3 23q0 27 -17.5 52.5t-52.5 35.5q-4 0 -12 2t-12 2q-27 0 -52 -16.5t-35 -51.5l-29 -108q-3 -12 -3 -23z" />
<glyph unicode="&#xf01e;" horiz-adv-x="2213" d="M0 527q0 -177 106 -317t275 -191l-70 -179q-5 -23 15 -23h227l-105 -459h30l418 613q6 7 1.5 14.5t-15.5 7066D215A16" />
<glyph unicode="&#xf021;" horiz-adv-x="2209" d="M0 678q0 36 25 60t61 24h1289q35 0 58 -23.5t23 -60.5q0 -35 -23 -58t-58 -23h-1289q-36 0 -61 23t-25 58z0082847AFA" />
<glyph unicode="&#xf022;" horiz-adv-x="2564" d="M0 89q0 -37 29 -64q27 -27 65 -27h612q42 0 73.5 -30.5t31.5 -72.5q0 -43 -31.5 -74t-73.5 -31q-41 0 -73 32q-29 26 -65 26q-38 0 -64 -26t-26 -64q0 -36 26 -64q84 -84 202 -84t201.5 83t83.5 202q0 118 -83.5 202t-201.5 84h-612q-38 0 -66 -27.5t-28 -64.5zM0 411 q0 -35 29 -62q28 -26 65 -26h1157q118 0 201.5 83t83.5 201t-83.5 200.5t-201.5 82.5q-122 0 -202 -81q-24 -25 -24 -65t24.5 -64t62.5 -24t66 24q30 30 73 30q41 0 72 -30t31 -73q0 -42 -31 -73t-72 -31h-1157q-38 0 -66 -27.5t-28 -64.5zM269 662q0 -14 17 -14h153 q13 0 23 16q36 87 111.5 143.5t168.5 63.5l56 8q20 0 20 18l8 55q17 173 147 289.5t305 116.5t304.5 -116t147.5 -290l7 -62q0 -19 20 -19h173q145 0 247 -101t102 -243t-102.5 -244t-246.5 -102h-737q-18 0 -18 -19v-146q0 -18 18 -18h737q143 0 264.5 71t192.5 193t71 265 q0 141 -73 264q117 113 161 275l16 72q3 3 3 8q0 7 -15 17l-64 22q-134 41 -204.5 145t-70.5 215q0 39 10 84l14 66q4 16 -14 24l-85 26q-70 17 -133 17q-59 0 -120 -14t-125.5 -43.5t-125.5 -85t-107 -130.5q-113 48 -247 48q-226 0 -399.5 -140t-220.5 -357 q-137 -32 -242 -131t-145 -235v-3q-2 -3 -2 -9zM1680 1397q50 88 138 134.5t182 46.5q22 0 33 -1q-2 -14 -2 -38q0 -151 84 -289t232 -207q-25 -60 -80 -110q-142 122 -337 122h-35q-43 201 -215 342z" />
<glyph unicode="&#xf023;" horiz-adv-x="2699" d="M0 86q0 -38 27 -63t67 -25h1003q38 0 63 25t25 63q0 40 -25 65.5t-63 25.5h-1003q-40 0 -67 -26t-27 -65zM281 411q0 -38 28 -64q26 -27 64 -27h1005q37 0 62.5 26.5t25.5 64.5q0 37 -25 62.5t-63 25.5h-1005q-38 0 -65 -25.5t-27 -62.5zM392 661q0 -15 19 -15h152 q14 0 24 15q36 87 111 144t168 64l59 8q19 0 19 18l7 55q17 174 147.5 290.5t306.5 116.5q175 0 303 -115t150 -289l8 -62q0 -18 19 -18h172q145 0 247 -102t102 -246q0 -141 -103.5 -244.5t-245.5 -103.5h-737q-18 0 -18 -18v-143q0 -18 18 -18h737q144 0 266 70t193 191.5 t71 265.5t-69 264q115 103 161 275l19 73q1 2 1 7q0 13 -16 17l-66 23q-70 21 -124 61t-85.5 89.5t-47 100.5t-15.5 101q0 38 12 93l14 65q7 15 -14 24l-88 26q-70 17 -133 17q-60 0 -121 -14t-126 -43.5t-125.5 -85t-105.5 -130.5q-124 51 -253 51q-226 0 -400.5 -140.5 t-221.5 -360.5q-139 -32 -243.5 -130.5t-145.5 -235.5v-3q-2 -2 -2 -8zM469 -245q0 -39 27 -64q26 -27 64 -27h1006q38 0 65 27t27 64t-27 62.5t-65 25.5h-1006q-38 0 -64.5 -25.5t-26.5 -62.5zM1811 1394q55 88 143.5 136.5t181.5 46.5q18 0 27 -1v-26q0 -156 84.5 -297.5 t231.5 -211.5q-28 -64 -81 -114q-141 126 -341 126h-34q-40 193 -212 341z" />
<glyph unicode="&#xf024;" horiz-adv-x="2325" d="M0 527q0 -213 148.5 -366t362.5 -163q19 0 19 18v143q0 18 -19 18q-137 7 -233 109t-96 241q0 133 90 231t224 114l56 3q21 0 21 19l8 58q17 173 146.5 290t304.5 117q173 0 304 -117t149 -290l8 -62q0 -18 18 -18h172q142 0 246 -102.5t104 -242.5q0 -139 -96 -241 t-233 -109q-21 0 -21 -18v-143q0 -18 21 -18q213 7 361 161t148 368q0 137 -69 257q126 119 165 279l14 73q3 2 3 7q0 12 -17 17l-60 18q-91 27 -155.5 90.5t-91.5 133t-27 140.5q-1 39 8 84l15 62q5 14 -15 23l-85 27q-67 20 -140 20q-56 0 -115.5 -13.5t-124.5 -43 t-126.5 -85t-106.5 -130.5q-120 52 -253 52q-226 0 -401 -140t-224 -358q-177 -41 -292 -184.5t-115 -328.5zM584 -223q14 -34 49 -48q31 -16 66 -2.5t48 47.5q16 35 2.5 69t-47.5 47q-32 16 -66 2t-50 -49q-16 -25 -2 -66zM651 79q0 -24 17 -48t49 -34q41 -16 71.5 0.5 t42.5 60.5l94 342q11 40 -8.5 71.5t-57.5 39.5q-35 11 -67 -7t-43 -54l-94 -343q0 -3 -2 -13t-2 -15zM850 -518q0 -20 6 -31q14 -35 48 -48q15 -8 35 -8q10 0 32 6q36 13 51.5 48t-0.5 70t-47.5 49t-65.5 0q-31 -13 -45 -38t-14 -48zM929 -235q0 -61 68 -83q15 -5 25 -5 q18 0 37 9q37 13 50 61l176 653q10 38 -7.5 69t-53.5 42q-37 11 -69.5 -7t-42.5 -54l-179 -658q-4 -18 -4 -27zM1296 -191q0 -20 7 -33q13 -32 47 -47q19 -8 37 -8q10 0 32 6q35 14 48 47q13 35 0.5 67.5t-44.5 48.5q-35 16 -69.5 2.5t-50.5 -49.5q-7 -13 -7 -34zM1373 82 q0 -25 16.5 -48.5t48.5 -33.5q27 -3 29 -3q65 0 82 65l93 338q10 38 -7.5 69t-53.5 42q-37 11 -68.5 -7t-42.5 -54l-94 -339q-3 -13 -3 -29zM1442 1389q50 92 138.5 140t187.5 47q18 0 27 -2v-33q0 -156 83.5 -293.5t231.5 -207.5q-31 -70 -80 -114q-141 125 -347 125h-34 q-41 200 -207 338z" />
<glyph unicode="&#xf025;" horiz-adv-x="2320" d="M0 527q0 -213 148.5 -366t362.5 -163q18 0 18 18v146q0 19 -18 19q-139 11 -234 110.5t-95 235.5q0 134 90.5 233.5t223.5 110.5l56 8q21 0 21 18l8 55q17 173 146 289.5t304 116.5q174 0 304 -116t148 -290l8 -62q0 -19 19 -19h172q145 0 247.5 -101t102.5 -243 q0 -136 -95 -235.5t-234 -110.5q-21 0 -21 -19v-146q0 -18 21 -18q213 7 360.5 161t147.5 368q0 143 -73 264q128 116 165 275l16 77q1 1 1 7q0 12 -17 17l-62 18q-91 26 -155 88t-91 131.5t-27 140.5q0 39 10 84l15 66q5 15 -15 24l-84 26q-70 17 -133 17q-58 0 -119 -14 t-127 -43.5t-128 -85t-107 -130.5q-113 48 -249 48q-226 0 -400.5 -139.5t-224.5 -357.5q-176 -42 -291 -185.5t-115 -327.5zM818 31q-8 -23 15 -23h230l-140 -442h32l445 596q6 7 3 14.5t-14 7.5h-235l246 449q11 23 -15 23h-314q-13 0 -23 -15zM1437 1391q53 91 141.5 139 t183.5 48q20 0 29 -2v-33q0 -154 83 -291t231 -209q-25 -59 -80 -114q-147 126 -343 126h-34q-45 200 -211 336z" />
<glyph unicode="&#xf026;" horiz-adv-x="2332" d="M0 525q0 -212 149 -366t363 -161q19 0 19 18v143q0 18 -19 18q-136 7 -233 110t-97 238q0 136 90.5 235.5t224.5 110.5l57 7q21 0 21 19l7 54q17 176 146.5 293.5t305.5 117.5q174 0 305.5 -117t149.5 -290l8 -61q0 -20 18 -20h173q145 0 248.5 -103t103.5 -246 q0 -88 -44 -166.5t-120.5 -127.5t-166.5 -54q-21 0 -21 -18v-143q0 -18 21 -18q141 4 258 76t184.5 191.5t67.5 259.5q0 141 -73 268q133 119 169 280l15 73q3 3 3 8q0 9 -18 17l-59 19q-92 27 -157 90.5t-92.5 133t-27.5 137.5q-3 34 10 88l14 62q7 16 -14 25l-85 26 q-65 18 -138 18q-58 0 -119.5 -14t-127 -44t-127.5 -86.5t-107 -131.5q-130 49 -251 49q-226 0 -401.5 -140.5t-225.5 -359.5q-180 -46 -293.5 -189t-113.5 -329zM577 -227q0 -27 17.5 -54t50.5 -37q37 -11 68 4t42 60l15 65q8 36 -10 67.5t-55 42.5q-36 11 -68.5 -8 t-42.5 -57l-15 -63q-2 -6 -2 -20zM658 82q0 -34 27 -61q25 -27 60 -27q38 0 64 25.5t26 62.5t-26 62.5t-64 25.5q-37 0 -62 -25t-25 -63zM723 325q-2 -25 14.5 -48.5t51.5 -34.5q33 -10 66 7.5t44 54.5l30 96q12 39 -7 69.5t-58 41.5q-35 11 -67.5 -7t-43.5 -53l-26 -98 q0 -3 -2 -12.5t-2 -15.5zM847 -560q0 -28 16.5 -53t51.5 -35q13 -3 27 -3q68 0 84 65l15 63q10 41 -9 73t-56 39q-34 11 -67 -7.5t-44 -54.5l-15 -63q-3 -14 -3 -24zM930 -250q0 -35 27 -62q26 -26 61 -26q38 0 63 25t25 63q0 37 -25 62t-63 25t-63 -25t-25 -62zM997 -8 q-2 -24 14 -50t48 -32q37 -10 68 6t44 60l29 96q11 35 -7.5 67t-56.5 43q-35 11 -68 -8.5t-44 -56.5l-24 -96q-3 -14 -3 -29zM1291 -237q0 -26 16.5 -51t49.5 -35q5 0 14.5 -2t14.5 -2q65 0 81 70l15 64q11 34 -7 67t-54 44q-40 10 -72.5 -8.5t-43.5 -56.5l-10 -63 q0 -4 -2 -13t-2 -14zM1370 78q0 -36 27 -61q24 -26 61 -26q38 0 63 25t25 62q0 38 -25 63t-63 25t-63 -25t-25 -63zM1435 325q0 -27 17.5 -51.5t52.5 -34.5q3 0 13 -2t15 -2q16 0 38 10q34 18 44 56l26 96q10 36 -8 67.5t-54 42.5q-37 11 -68 -6t-42 -54l-30 -97 q0 -4 -2 -12.5t-2 -12.5zM1442 1397q51 92 140 142.5t184 49.5q16 0 32 -3v-34q-2 -157 82.5 -294.5t236.5 -206.5q-31 -64 -85 -118q-148 122 -344 122h-33q-50 208 -213 342z" />
<glyph unicode="&#xf027;" horiz-adv-x="2333" d="M0 525q0 -179 106.5 -320.5t274.5 -188.5q14 -3 26 8l120 150q-140 0 -242.5 104t-102.5 247q0 134 90 231.5t225 109.5l53 7q20 0 20 20l8 57q20 174 150 291t305 117q174 0 305 -117.5t150 -290.5l7 -62q0 -18 19 -18h173q141 0 243.5 -102t102.5 -243 q0 -136 -90 -236.5t-221 -111.5q-72 -9 -92 -30l-249 -310q-25 -28 -20 -67q4 -38 33.5 -63t60.5 -25q36 0 68 40l218 276q99 10 187.5 55.5t151.5 115.5t100 163t37 193q0 139 -73 260q130 118 169 280v10l21 82l-81 28q-92 27 -156.5 89t-92 131t-27.5 140q0 41 9 85 l20 83l-89 25q-1 0 -3 2l-4 2t-4.5 2t-3.5 1q-70 17 -133 17q-61 -1 -122.5 -15t-128 -44t-128.5 -86t-107 -132q-120 52 -250 52q-226 0 -401 -140t-225 -358q-181 -44 -294 -186.5t-113 -327.5zM395 -327q0 -21 7 -33q14 -35 46 -49q35 -16 71 -3t49 47q16 35 1.5 71.5 t-48.5 48.5q-35 16 -70.5 2.5t-48.5 -48.5q-7 -15 -7 -36zM592 -66v-12q3 -36 35 -59q21 -24 58 -23t70 34l248 311q22 28 18 66.5t-32 61.5t-67 19t-61 -36l-248 -305q-21 -24 -21 -57zM653 -622q14 -34 49 -48q17 -8 35 -8q10 0 32 6q34 14 47 47q13 35 1 69t-47 51 q-35 13 -67 -0.5t-48 -46.5q-17 -30 -2 -70zM823 -338v-9q4 -36 34 -61.5t60 -25.5q35 0 64 36l460 572q23 27 20 66t-31 62q-32 23 -70.5 19.5t-60.5 -31.5l-456 -572q-20 -25 -20 -56zM1197 -456q0 -18 8 -35q13 -36 50 -50q36 -14 65 -2q35 14 49 49q16 35 3.5 68.5 t-47.5 49.5q-35 13 -69.5 0t-50.5 -45q-8 -19 -8 -35zM1441 1391q50 92 138.5 140.5t187.5 46.5q19 0 28 -1v-32q0 -155 85.5 -293.5t233.5 -209.5q-40 -75 -84 -119q-142 126 -343 126h-34q-48 205 -212 342z" />
<glyph unicode="&#xf028;" horiz-adv-x="2331" d="M0 528q0 -213 149 -366.5t363 -163.5q19 0 19 18v143q0 18 -19 18q-137 8 -233.5 110t-96.5 241q0 133 90.5 231.5t224.5 114.5l57 4q21 0 21 18l7 58q17 173 147 290.5t305 117.5q174 0 305 -117.5t149 -290.5l8 -61q0 -19 18 -19h173q143 0 247.5 -102.5t104.5 -243.5 q0 -139 -96.5 -241t-233.5 -110q-22 0 -22 -18v-143q0 -18 22 -18q213 7 361 161.5t148 368.5q0 141 -73 262q129 117 169 279l15 77q2 1 2 7q0 12 -17 17l-60 19q-91 26 -156 88.5t-92.5 131.5t-27.5 137q-3 36 9 88l15 65q7 16 -15 26l-84 26q-72 16 -135 16 q-60 0 -122 -14t-128 -43.5t-128 -85t-107 -130.5q-132 48 -249 48q-226 0 -401.5 -140.5t-225.5 -359.5q-177 -41 -292 -185t-115 -329zM593 -201q0 -27 17.5 -52.5t52.5 -35.5q37 -11 68.5 4.5t42.5 59.5l153 626q10 40 -9 72t-56 39q-35 11 -67.5 -7t-43.5 -54l-154 -629 q0 -2 -2 -10t-2 -13zM871 -529q0 -25 16.5 -49t47.5 -33q18 -4 26 -4q70 0 87 63l240 953q10 39 -7.5 69.5t-53.5 41.5q-37 11 -70.5 -7.5t-41.5 -53.5l-241 -952q0 -2 -1.5 -12.5t-1.5 -15.5zM1315 -210q0 -57 67 -79q22 -6 32 -6q18 0 37 8q33 13 42 62l153 626 q10 38 -8 69t-54 42q-37 11 -70 -7t-41 -54l-153 -629q-5 -27 -5 -32zM1441 1395q51 93 139.5 141.5t187.5 46.5q19 0 29 -1v-32q-2 -155 82 -293t236 -210q-36 -73 -84 -114q-147 121 -344 121h-33q-44 203 -213 341z" />
<glyph unicode="&#xf029;" horiz-adv-x="2331" d="M0 527q0 -213 148.5 -366t362.5 -163q18 0 18 18v146q0 19 -18 19q-139 11 -234 110.5t-95 235.5q0 132 90 230t224 114l56 8q21 0 21 18l8 55q17 173 146 289.5t304 116.5q174 0 304 -116t148 -290l8 -62q0 -19 19 -19h172q144 0 247 -101t103 -243q0 -136 -95 -235.5 t-234 -110.5q-21 0 -21 -19v-146q0 -18 21 -18q213 7 360.5 161t147.5 368q0 139 -69 259q130 117 169 279v14l20 84l-81 22q-130 39 -202 144.5t-72 216.5q0 42 9 83l21 85l-91 27l-14 4q-75 15 -133 15q-60 0 -122 -14t-128.5 -44t-128 -85.5t-106.5 -131.5 q-119 52 -252 52q-226 0 -399.5 -140t-220.5 -358q-180 -41 -295.5 -184t-115.5 -328zM576 -195q0 -24 16 -47.5t48 -35.5q35 -12 68 5.5t44 54.5l30 113q11 33 -7.5 66t-54.5 44q-37 10 -69.5 -9t-44.5 -57l-25 -106q-5 -25 -5 -28zM714 310q0 -18 11 -38q12 -28 57 -41 q39 -10 70 6.5t43 55.5l30 110q11 37 -7.5 68.5t-54.5 41.5q-39 10 -71 -7.5t-43 -55.5l-29 -108q-6 -22 -6 -32zM848 -528q0 -27 16.5 -52.5t48.5 -35.5q17 -5 24 -5q14 0 40 11q32 13 46 59l32 112q11 34 -7.5 67t-54.5 44q-39 10 -71.5 -8.5t-43.5 -56.5l-27 -108 q-3 -13 -3 -27zM990 -19q0 -24 16 -47.5t49 -35.5q36 -11 68 6t43 56l29 111q11 34 -6.5 66.5t-52.5 43.5q-39 10 -72.5 -9t-44.5 -57l-26 -107q0 -3 -1 -8.5t-1.5 -10t-0.5 -8.5zM1289 -207q0 -60 68 -80q13 -3 26 -3q24 0 39 7q34 13 47 61l29 109q10 40 -8.5 71.5 t-56.5 39.5q-37 11 -68.5 -7.5t-42.5 -54.5l-29 -111q0 -4 -2 -15.5t-2 -16.5zM1437 307q0 -25 16.5 -49t49.5 -34q23 -5 25 -5q14 0 40 11q33 13 47 59l30 111q10 35 -9 67t-57 43q-35 11 -67 -7.5t-43 -55.5l-28 -113q-4 -18 -4 -27zM1441 1391q51 90 141.5 140t193.5 50 h22q-1 -14 -1 -40q0 -152 83.5 -289t231.5 -209q-35 -69 -83 -117q-149 129 -347 129h-34q-40 189 -207 336z" />
<glyph unicode="&#xf02a;" horiz-adv-x="2331" d="M0 525q0 -212 149 -366t363 -161q19 0 19 18v143q0 18 -19 18q-136 7 -233 109.5t-97 238.5t90.5 235t224.5 110l57 8q21 0 21 18l7 55q17 175 146.5 293t305.5 118q174 0 305 -117.5t149 -290.5l8 -61q0 -19 18 -19h173q145 0 248.5 -103t103.5 -246q0 -136 -97 -238.5 t-233 -109.5q-22 0 -22 -18v-143q0 -18 22 -18q140 4 257 76t184.5 192t67.5 259q0 146 -69 265q118 106 162 275l18 77q2 2 2 8q0 12 -17 17l-65 18q-70 21 -124.5 61t-86 89.5t-47 101t-15.5 101.5q0 43 11 92l12 66q4 15 -15 24l-85 26q-70 17 -133 17q-59 0 -120 -14 t-126 -44t-126 -85.5t-106 -130.5q-129 53 -254 53q-226 0 -401.5 -140.5t-225.5 -359.5q-180 -45 -293.5 -188t-113.5 -329zM681 89q0 -38 25.5 -64.5t62.5 -26.5q38 0 63.5 26.5t25.5 64.5q0 36 -25.5 62t-63.5 26q-37 0 -62.5 -26t-25.5 -62zM681 -299q0 -36 26 -62 t62 -26q38 0 63.5 25t25.5 63t-25.5 63t-63.5 25t-63 -25t-25 -63zM1023 -118q0 -39 26 -63q26 -26 62 -26q38 0 65 26t27 63q0 38 -27 65.5t-65 27.5q-35 0 -61.5 -27.5t-26.5 -65.5zM1023 270q0 -38 26 -62q26 -26 62 -26q39 0 65.5 25t26.5 63q0 37 -27 63.5t-65 26.5 q-36 0 -62 -26.5t-26 -63.5zM1023 -510q0 -35 26 -61q27 -27 62 -27q38 0 65 25.5t27 62.5q0 38 -27 65.5t-65 27.5q-35 0 -61.5 -27.5t-26.5 -65.5zM1368 89q0 -38 26.5 -64.5t63.5 -26.5t62.5 26.5t25.5 64.5q0 36 -25.5 62t-62.5 26t-63.5 -26t-26.5 -62zM1368 -299 q0 -36 26 -62t64 -26t63 25.5t25 62.5q0 38 -25 63t-63 25t-64 -25t-26 -63zM1441 1395q50 87 138.5 134.5t182.5 49.5q24 0 35 -2v-33q0 -155 83.5 -292.5t231.5 -209.5q-26 -58 -81 -114q-142 126 -344 126h-33q-44 197 -213 341z" />
<glyph unicode="&#xf02b;" horiz-adv-x="2323" d="M0 529q0 -213 148.5 -366t362.5 -164q19 0 19 19v142q0 19 -19 19q-137 7 -233 109t-96 241q0 133 90 231t224 114l56 4q21 0 21 19l8 58q17 173 146.5 289.5t304.5 116.5q174 0 305 -117t149 -289l7 -61q0 -20 19 -20h173q142 0 245.5 -102.5t103.5 -242.5 q0 -139 -96 -241t-233 -109q-20 0 -20 -19v-142q0 -19 20 -19q140 5 257.5 77t185 192.5t67.5 260.5q0 139 -73 261q125 119 164 275l15 78q2 1 2 7q0 12 -17 17l-61 18q-91 26 -156 87.5t-92.5 129.5t-27.5 137q0 46 12 91l14 65q4 16 -14 25l-85 26q-72 16 -135 16 q-58 0 -119 -14t-126.5 -43t-127.5 -84t-107 -128q-130 49 -249 49q-226 0 -401 -140.5t-225 -358.5q-177 -42 -291.5 -185.5t-114.5 -328.5zM633 435q0 -61 44.5 -104t108.5 -43t107 42.5t43 104.5q0 41 -37 109t-69 105q-17 19 -44 46l-37 -44q-43 -47 -79.5 -110.5 t-36.5 -105.5zM952 10q0 -105 73 -177t176 -72q105 0 177.5 73t72.5 176q0 88 -85 213q-71 93 -137 159q-13 9 -28 24l-25 -24q-63 -58 -136 -158q-38 -53 -63 -111t-25 -103zM1109 721q0 -41 30.5 -70t74.5 -29q41 0 70 29t29 70q0 68 -99 173l-27 -29q-29 -32 -53.5 -74.5 t-24.5 -69.5zM1435 1395q56 91 143 137.5t183 46.5q19 0 29 -2v-32q0 -154 84 -292t233 -210q-25 -60 -80 -110q-148 122 -342 122h-35q-49 210 -215 340z" />
<glyph unicode="&#xf02c;" horiz-adv-x="2328" d="M0 529q0 -177 106 -316.5t275 -190.5l-69 -181q-7 -22 15 -22h226l-138 -446h30l451 600q6 7 2 14.5t-15 7.5h-232l264 495q11 23 -14 23h-316q-14 0 -24 -16l-114 -307q-114 29 -189.5 124.5t-75.5 214.5q0 133 90.5 231t224.5 114l56 8q21 0 21 19l8 54 q17 173 146.5 290t304.5 117q174 0 305 -117.5t149 -289.5l8 -61q0 -20 18 -20h173q145 0 248 -101.5t103 -243.5q0 -136 -96 -236t-235 -110q-20 0 -20 -20v-145q0 -19 20 -19q213 7 361.5 161.5t148.5 368.5q0 139 -70 261q122 118 161 280l20 73q1 1 1 7q0 13 -16 17 l-66 18q-92 27 -156 89.5t-90.5 130t-25.5 134.5q0 44 11 91l12 65q4 16 -15 25l-85 26q-75 15 -132 15q-59 1 -120.5 -12.5t-126.5 -43t-125.5 -84t-105.5 -128.5q-136 49 -254 49q-226 0 -401 -140.5t-225 -358.5q-177 -42 -292 -185.5t-115 -328.5zM872 -523 q0 -25 16.5 -50t48.5 -35q25 -5 29 -5q15 0 39 11q33 16 45 56l30 112q10 35 -8.5 67.5t-56.5 43.5q-35 10 -67.5 -9t-43.5 -57l-29 -107q0 -3 -1 -8.5t-1.5 -10t-0.5 -8.5zM1015 -16q0 -69 65 -80q22 -5 29 -5q60 0 82 67l32 109q10 35 -9 67.5t-57 43.5q-36 11 -68.5 -7.5 t-43.5 -56.5l-27 -108q-3 -14 -3 -30zM1314 -194q2 -27 19 -51.5t51 -36.5q26 -6 35 -6q55 0 76 72l26 109q11 37 -6.5 70t-53.5 44q-40 10 -72.5 -9t-39.5 -57l-31 -110q0 -4 -2 -12.5t-2 -12.5zM1440 1395q53 89 143 137.5t188 48.5h23v-34q0 -102 36 -198t108.5 -177 t171.5 -129q-27 -60 -81 -110q-146 125 -343 125h-35q-45 201 -211 337zM1461 318q0 -69 69 -88q22 -4 32 -4q58 0 79 69l30 111q1 8 1 23q2 27 -15 52.5t-52 35.5q-2 0 -10.5 1.5t-13.5 1.5q-26 0 -51 -16.5t-35 -50.5l-31 -109q0 -1 -1.5 -11t-1.5 -15z" />
<glyph unicode="&#xf02d;" horiz-adv-x="2330" d="M0 531q0 -178 106 -317.5t275 -190.5l-70 -180q-4 -22 16 -22h226l-104 -374h31l417 527q6 8 1.5 15.5t-15.5 7.5h-232l264 494q11 23 -14 23h-316q-14 0 -24 -15l-114 -307q-115 29 -190 124.5t-75 214.5q0 133 90.5 231.5t224.5 114.5l56 8q21 0 21 18l8 55 q17 173 146.5 290t304.5 117q173 0 304.5 -117.5t150.5 -289.5l7 -63q0 -18 19 -18h173q145 0 248 -101.5t103 -244.5q0 -136 -96 -236t-235 -111q-20 0 -20 -18v-147q0 -19 20 -19q140 5 257.5 77t185 192.5t67.5 261.5q0 139 -70 261q127 121 166 280l15 77q2 2 2 8 q0 11 -17 16l-60 19q-91 26 -156 87.5t-92.5 131.5t-27.5 141q0 42 9 85l15 65q7 16 -15 25q-34 14 -96.5 28t-122.5 14q-58 0 -119 -14t-126.5 -43.5t-127.5 -85t-107 -130.5q-132 48 -254 48q-226 0 -401 -140t-225 -358q-177 -42 -292 -186t-115 -329zM864 -517 q0 -26 15.5 -49.5t47.5 -32.5q17 -3 32 -3q65 0 81 67l247 938q10 38 -7.5 69.5t-53.5 41.5q-37 11 -69.5 -6.5t-42.5 -52.5l-247 -943q-3 -14 -3 -29zM1309 -195q0 -26 15.5 -49t49.5 -33q5 0 16.5 -1.5t17.5 -1.5q61 0 77 67l160 616q10 39 -8 70t-54 41q-37 11 -69 -6 t-42 -53l-160 -621q-3 -17 -3 -29zM1441 1398q53 91 141.5 139t187.5 48q20 0 29 -1v-34q0 -154 83.5 -291t231.5 -210q-29 -67 -84 -114q-147 126 -343 126h-34q-45 199 -212 337z" />
<glyph unicode="&#xf02e;" horiz-adv-x="1512" d="M0 786q0 153 60 293t161.5 241.5t242 162t293.5 60.5h122q25 -7 25 -30l5 -94q6 -203 146 -346t340 -151l80EB233EA8A" />
<glyph unicode="&#xf02f;" horiz-adv-x="2548" d="M0 93q0 -38 29 -64q29 -29 65 -29h627q42 0 73.5 -30t31.5 -73q0 -41 -32 -72.5t-73 -31.5q-40 0 -72 32q-30 28 -66 28q-37 0 -63 -27t-26 -65t26 -64q83 -83 201 -83q119 0 202 82.5t83 200.5q0 119 -83.5 203t-201.5 84h-627q-38 0 -66 -27t-28 -64zM0 414 q0 -36 29 -62q24 -26 65 -26h1172q118 0 201.5 83t83.5 201t-83.5 200.5t-201.5 82.5q-122 0 -202 -80q-24 -27 -24 -67q0 -38 24 -62.5t64 -24.5t65 24q30 30 73 30q41 0 72 -30t31 -73t-31 -74t-72 -31h-1172q-38 0 -66 -27t-28 -64zM283 664q0 -13 18 -13h153q13 0 23 15 q36 87 111.5 144t169.5 64l56 7q20 0 20 20l7 53q17 173 147 289.5t305 116.5t304 -115.5t148 -290.5l7 -61q0 -19 19 -19h174q144 0 246 -101t102 -243q0 -143 -102 -244.5t-246 -101.5h-737q-18 0 -18 -19v-146q0 -19 18 -19h737q143 0 264.5 71t192 193t70.5 266 q0 118 -45 216q122 160 122 355q0 114 -44.5 217.5t-119.5 178t-178.5 118.5t-216.5 44q-247 0 -414 -185q-125 65 -283 65q-226 0 -399.5 -139.5t-220.5 -357.5q-136 -32 -241 -131t-146 -233v-4q-3 -8 -3 -10zM1726 1371q115 109 264 109q156 0 267.5 -112t111.5 -267 q0 -97 -54 -197q-153 153 -370 153h-35q-37 171 -184 314z" />
<glyph unicode="&#xf030;" horiz-adv-x="2681" d="M0 91q0 -40 29 -64q27 -28 65 -28h1018q37 0 62.5 27t25.5 65t-25.5 65t-62.5 27h-1018q-38 0 -66 -27.5t-28 -64.5zM281 414q0 -36 29 -62q26 -26 64 -26h1019q38 0 63 25t25 63t-25.5 64.5t-62.5 26.5h-1019q-38 0 -65.5 -27t-27.5 -64zM403 663q0 -12 21 -12h152 q14 0 24 15q36 87 112 144t169 64l58 8q19 0 19 19l8 54q17 173 147 290t306 117t306 -116t148 -291l8 -61q0 -20 18 -20h173q146 0 248.5 -101t102.5 -244q0 -142 -102.5 -244t-248.5 -102h-737q-18 0 -18 -18v-147q0 -19 18 -19h737q145 0 267.5 71t194 193t71.5 266 q0 113 -47 214q123 161 123 351q0 152 -75.5 281.5t-204.5 204.5t-282 75q-244 0 -410 -178q-136 65 -290 65q-149 0 -280.5 -63t-221 -177t-120.5 -259q-140 -32 -244.5 -128.5t-145.5 -231.5zM469 -239q0 -37 28 -62q26 -26 64 -26h1020q38 0 64.5 25t26.5 63t-27 65 t-64 27h-1020q-37 0 -64.5 -27.5t-27.5 -64.5zM1856 1369q108 104 263 104q158 0 269 -110.5t111 -268.5q0 -101 -52 -189q-157 153 -375 153h-34q-39 175 -182 311z" />
<glyph unicode="&#xf031;" horiz-adv-x="2282" d="M0 529q0 -143 70 -264.5t191 -192.5t264 -71h1153q143 0 264.5 71t192.5 192.5t71 264.5q0 102 -45 213q121 148 121 352q0 152 -74 280.5t-202.5 203.5t-280.5 75q-239 0 -413 -186q-122 69 -287 69q-225 0 -397.5 -139t-221.5 -357q-179 -40 -292.5 -183t-113.5 -328z M182 529q0 133 89 230t224 113l73 3l7 77q22 173 150 289.5t300 116.5q175 0 305 -117t147 -289l11 -80h190q141 0 243 -101.5t102 -241.5q0 -144 -101.5 -247t-243.5 -103h-1153q-139 0 -241 104t-102 246zM1465 1365q110 106 260 106q158 0 268.5 -109.5t110.5 -267.5 q0 -99 -55 -196q-153 153 -371 153h-33q-44 178 -180 314z" />
<glyph unicode="&#xf032;" horiz-adv-x="2294" d="M0 529q0 -213 148.5 -366t362.5 -164q19 0 19 19v142q0 19 -19 19q-137 7 -233 109t-96 241q0 133 90 231t224 114l56 8q21 0 21 19l8 54q17 173 146.5 289.5t304.5 116.5q174 0 305 -117t149 -289l7 -62q0 -19 19 -19h173q145 0 247 -101t102 -244q0 -139 -96 -241 t-233 -109q-20 0 -20 -19v-142q0 -19 20 -19q140 5 257.5 77t185 192.5t67.5 260.5q0 118 -46 214q126 153 126 354q0 151 -75.5 280t-204.5 204.5t-280 75.5q-249 0 -414 -185q-131 70 -289 70q-226 0 -401 -140.5t-225 -358.5q-176 -42 -291 -185.5t-115 -328.5zM573 -215 q14 -35 49 -49q32 -16 66.5 -2.5t47.5 47.5q14 35 1 69.5t-47 50.5q-32 13 -65.5 -1t-49.5 -46q-16 -27 -2 -69zM640 87q0 -25 16.5 -49t49.5 -33q36 -11 69 6t46 59l105 332q12 39 -8 71t-59 40q-35 11 -66.5 -6.5t-42.5 -53.5l-107 -339q0 -3 -1 -8.5t-1.5 -10t-0.5 -8.5z M839 -511q0 -11 6 -31q15 -36 49 -48q13 -8 35 -8q10 0 32 6q35 13 50.5 48.5t-0.5 70.5t-48 49t-66 1q-31 -13 -44.5 -38.5t-13.5 -49.5zM918 -226q0 -28 16 -51t51 -30q3 0 12 -2t14 -2q69 5 86 66l188 647q11 39 -6.5 69.5t-53.5 41.5q-37 11 -69 -6.5t-43 -53.5 l-192 -647q0 -4 -1 -10.5t-1.5 -12t-0.5 -9.5zM1285 -183q0 -16 5 -34q13 -34 49 -47q15 -7 38 -7q19 0 31 6q36 14 49 46q13 35 0.5 69t-44.5 51q-35 13 -69.5 -1t-50.5 -46q-8 -17 -8 -37zM1361 88q0 -57 66 -80q22 -6 32 -6q19 0 36 9q28 14 43 59l105 332 q12 37 -6.5 68.5t-54.5 42.5q-37 11 -68 -6.5t-43 -53.5l-105 -334q-5 -27 -5 -31zM1471 1369q110 106 264 106q156 0 266.5 -111t110.5 -267q0 -99 -55 -196q-157 157 -372 157h-35q-49 185 -179 311z" />
<glyph unicode="&#xf033;" horiz-adv-x="2285" d="M0 525q0 -105 40 -200.5t108.5 -165t162.5 -112.5t199 -48q19 0 19 18v143q0 18 -19 18q-139 10 -234 110t-95 237q0 134 90.5 233t223.5 111l56 6q20 0 20 19l8 55q11 114 74 207t162 145.5t215 52.5q174 0 303.5 -115t148.5 -287l7 -62q0 -18 20 -18h171 q144 0 247 -102.5t103 -244.5q0 -137 -95 -237t-234 -110q-21 0 -21 -18v-143q0 -18 21 -18q214 10 361 161.5t147 364.5q0 102 -50 220q127 159 127 349q0 152 -75.5 281t-204 204t-279.5 75q-254 0 -413 -185q-130 68 -284 68q-225 0 -400 -140.5t-224 -359.5 q-179 -41 -292.5 -184t-113.5 -328zM816 32q-4 -22 15 -22h231l-141 -445h31l446 595q6 7 2.5 14.5t-14.5 7.5h-233l245 452q12 23 -15 23h-314q-12 0 -22 -15zM1463 1366q107 106 264 106t266.5 -110t109.5 -268q0 -95 -55 -192q-155 149 -368 149h-33q-47 190 -184 315z " />
<glyph unicode="&#xf034;" horiz-adv-x="2307" d="M0 527q0 -139 68 -259t186 -192.5t259 -76.5q20 0 20 18v143q0 19 -20 19q-137 7 -234 109.5t-97 238.5t91 235.5t225 110.5l56 8q21 0 21 18l8 55q17 176 147.5 294.5t306.5 118.5q174 0 305 -117.5t149 -291.5l8 -62q0 -18 19 -18h173q144 0 247.5 -103.5t103.5 -247.5 q0 -136 -97 -238.5t-233 -109.5q-21 0 -21 -19v-143q0 -18 21 -18q141 4 258.5 76.5t185 192.5t67.5 259q0 116 -45 215q129 159 129 359q0 153 -75.5 282.5t-205 205t-281.5 75.5q-119 0 -229 -49.5t-190 -136.5q-141 69 -289 69q-227 0 -403 -140.5t-226 -359.5 q-180 -46 -294 -190t-114 -330zM569 -227q0 -27 17.5 -54t50.5 -37q37 -11 68 4t42 60l15 65q8 36 -10 67.5t-55 42.5q-36 11 -68.5 -8t-42.5 -57l-15 -63q-2 -6 -2 -20zM650 82q0 -34 27 -61q25 -27 60 -27q38 0 64 25.5t26 62.5t-26 62.5t-64 25.5q-37 0 -62 -25t-25 -63z M715 325q-2 -25 14.5 -48.5t51.5 -34.5q33 -10 66 7.5t44 54.5l30 96q12 39 -7 69.5t-58 41.5q-35 11 -67.5 -7t-43.5 -53l-26 -98q0 -3 -2 -12.5t-2 -15.5zM839 -560q0 -28 16.5 -53t51.5 -35q13 -3 27 -3q68 0 84 65l15 63q10 41 -9 73t-56 39q-34 11 -67 -7.5t-44 -54.5 l-15 -63q-3 -14 -3 -24zM922 -250q0 -35 27 -62q26 -26 61 -26q38 0 63 25t25 63q0 37 -25 62t-63 25t-63 -25t-25 -62zM989 -8q-2 -24 14 -50t48 -32q37 -10 68 6t44 60l29 96q11 35 -7.5 67t-56.5 43q-35 11 -68 -8.5t-44 -56.5l-24 -96q-3 -14 -3 -29zM1283 -237 q0 -26 16.5 -51t49.5 -35q5 0 14.5 -2t14.5 -2q65 0 81 70l15 64q11 34 -7 67t-54 44q-40 10 -72.5 -8.5t-43.5 -56.5l-10 -63q0 -4 -2 -13t-2 -14zM1362 78q0 -36 27 -61q24 -26 61 -26q38 0 63 25t25 62q0 38 -25 63t-63 25t-63 -25t-25 -63zM1427 325q0 -27 17.5 -51.5 t52.5 -34.5q3 0 13 -2t15 -2q16 0 38 10q34 18 44 56l26 96q10 36 -8 67.5t-54 42.5q-37 11 -68 -6t-42 -54l-30 -97q0 -4 -2 -12.5t-2 -12.5zM1477 1370q111 111 268 111t267.5 -111.5t110.5 -268.5q0 -107 -54 -197q-154 154 -378 154h-34q-45 187 -180 312z" />
<glyph unicode="&#xf035;" horiz-adv-x="2323" d="M0 515q0 -181 106.5 -321t279.5 -192q16 -2 27 8l121 156q-143 0 -246.5 102.5t-103.5 246.5q0 138 91.5 239t228.5 112l56 8q17 0 17 15l8 60q19 176 150.5 294t307.5 118q178 0 310.5 -117t149.5 -292l8 -63q4 -18 22 -18h174q144 0 248 -105t104 -251 q0 -135 -91 -235.5t-224 -113.5q-76 0 -97 -30l-233 -256q-25 -29 -20.5 -66.5t33.5 -67.5q21 -28 62.5 -24.5t64.5 40.5l209 222q132 13 243 87.5t175.5 192t64.5 251.5q0 101 -46 222q123 156 123 354q0 156 -76 286.5t-207 206t-285 75.5q-251 0 -416 -182 q-139 69 -296 69q-229 0 -404.5 -142t-225.5 -366q-183 -41 -298 -186.5t-115 -336.5zM405 -285q0 -23 5 -34q13 -34 47 -47q36 -16 72.5 -2.5t48.5 48.5q16 35 2 71.5t-49 49.5q-36 13 -70 -0.5t-50 -47.5q-6 -13 -6 -38zM601 -24q0 -37 34 -71q68 -58 134 16l234 260 q24 28 19.5 65.5t-33.5 60.5q-29 22 -67 17t-63 -31l-235 -254q-23 -34 -23 -63zM670 -550q0 -19 8 -34q14 -36 44 -49q19 -8 39 -8q12 0 34 6q34 15 47 48q16 32 2.5 68t-47.5 49q-36 17 -70 3t-52 -51q-5 -15 -5 -32zM848 -295v-14q3 -39 34 -64q23 -29 63.5 -25.5 t63.5 40.5l450 524q25 29 21 68t-37 61q-28 23 -64.5 20t-61.5 -32l-450 -525q-19 -20 -19 -53zM1235 -384q-11 -36 0 -66q14 -35 48 -52q17 -8 38 -8q10 0 32 6q36 14 49 49q16 36 3 70t-47 47q-36 17 -70.5 3.5t-52.5 -49.5zM1491 1368q109 109 264 109 q161 0 273.5 -112.5t112.5 -273.5q0 -100 -55 -194q-156 156 -379 156h-34q-40 182 -182 315z" />
<glyph unicode="&#xf036;" horiz-adv-x="2291" d="M0 525q0 -105 40 -200.5t108.5 -165t163 -112.5t199.5 -48q18 0 18 18v143q0 18 -18 18q-139 10 -234 110t-95 237q0 134 90.5 233.5t223.5 110.5l56 6q21 0 21 20l6 54q17 174 146.5 289.5t305.5 115.5q175 0 304.5 -114.5t147.5 -286.5l7 -62q0 -19 20 -19h171 q144 0 247 -102.5t103 -244.5q0 -137 -95 -237t-234 -110q-21 0 -21 -18v-143q0 -18 21 -18q214 10 361.5 161.5t147.5 364.5q0 115 -45 212q125 151 125 358q0 150 -75 279t-204 204.5t-279 75.5q-249 0 -414 -185q-141 69 -288 69q-226 0 -400.5 -140.5t-224.5 -360.5 q-176 -41 -291 -184.5t-115 -327.5zM585 -187q0 -64 69 -83q33 -11 67 6.5t44 53.5l160 611q10 35 -9.5 67t-57.5 43q-35 11 -67 -7.5t-42 -55.5l-160 -608q-4 -18 -4 -27zM862 -513q0 -19 9 -39q16 -33 54 -46q4 0 10.5 -1t12 -1.5t9.5 -0.5q69 0 81 70l245 932 q11 35 -6.5 67t-53.5 43q-39 11 -72 -7.5t-40 -55.5l-246 -933q-3 -15 -3 -28zM1305 -186q0 -25 17 -50t48 -34q10 -3 24 -3q27 0 52 14.5t34 48.5l160 611q12 33 -7 66t-55 44q-39 11 -70.5 -7.5t-38.5 -55.5l-160 -608q-4 -18 -4 -26zM1469 1362q107 107 264 107 q156 0 266 -109t110 -265q0 -100 -55 -197q-153 153 -373 153h-33q-45 187 -179 311z" />
<glyph unicode="&#xf037;" horiz-adv-x="2293" d="M0 526q0 -105 40 -200.5t108.5 -165.5t163.5 -113t200 -48q19 0 19 18v143q0 18 -19 18q-136 7 -232.5 109.5t-96.5 238.5t90 235t224 110l57 7q16 0 16 16l8 57q18 175 149 291.5t307 116.5q174 0 304.5 -115.5t149.5 -288.5l7 -61q0 -20 19 -20h173q142 0 244 -102 t102 -246q0 -136 -95 -238.5t-231 -109.5q-20 0 -20 -18v-143q0 -18 20 -18q214 10 362 162t148 365q0 103 -44 213q121 159 121 351q0 151 -75.5 280.5t-204.5 205t-280 75.5q-245 0 -412 -178q-139 69 -288 69q-227 0 -402 -141t-224 -361q-181 -42 -294.5 -183.5 t-113.5 -330.5zM575 -194q0 -27 15.5 -51.5t51.5 -36.5q18 -9 39.5 -7.5t43 21t29.5 51.5l30 108q10 40 -8.5 72t-56.5 39q-34 11 -67 -7.5t-44 -53.5l-30 -111q-3 -14 -3 -24zM715 315q1 -31 18 -55.5t51 -29.5q28 -5 32 -5q60 0 81 70l30 107q10 37 -8.5 70.5t-56.5 44.5 q-36 10 -68 -8.5t-43 -55.5l-32 -112q-4 -20 -4 -26zM847 -528q0 -28 16.5 -53t51.5 -35q23 -5 30 -5q14 0 40 11q27 13 41 59l32 108q10 40 -9 72.5t-56 39.5q-35 11 -68.5 -7.5t-44.5 -54.5l-30 -111q-3 -14 -3 -24zM989 -16q0 -27 17 -52.5t52 -35.5q36 -11 67.5 5 t43.5 60l30 108q11 40 -7.5 71t-56.5 38q-35 12 -68 -6.5t-44 -54.5l-30 -111q-4 -14 -4 -22zM1293 -202q-2 -25 14.5 -49.5t49.5 -35.5l27 -3q18 -1 40 8q34 13 45 58l30 112q11 37 -7.5 68.5t-54.5 42.5q-40 10 -71.5 -9t-38.5 -57l-31 -107q-3 -27 -3 -28zM1437 310 q0 -28 17.5 -53t51.5 -32q3 0 8.5 -1t10 -1.5t8.5 -0.5q69 0 86 66l30 110q10 40 -9 72t-57 39q-37 11 -68.5 -7.5t-41.5 -56.5l-32 -109q-4 -18 -4 -26zM1473 1366q107 103 261 103q156 0 266 -111.5t110 -267.5q0 -102 -51 -189q-154 154 -372 154h-34q-39 175 -180 311z " />
<glyph unicode="&#xf038;" horiz-adv-x="2297" d="M0 529q0 -213 149 -366.5t363 -163.5q19 0 19 18v143q0 18 -19 18q-137 8 -233.5 110t-96.5 241q0 133 90.5 231t224.5 114l56 4q21 0 21 19l8 58q17 173 146.5 290t304.5 117q174 0 305 -117t149 -290l8 -61q0 -20 18 -20h173q145 0 248 -101.5t103 -243.5 q0 -138 -97 -240.5t-234 -110.5q-20 0 -20 -18v-143q0 -18 20 -18q214 7 362.5 161.5t148.5 368.5q0 114 -46 214q126 154 126 354q0 152 -75.5 281.5t-204.5 204.5t-280 75q-248 0 -415 -185q-129 69 -289 69q-226 0 -401 -140.5t-225 -358.5q-177 -42 -292 -185.5 t-115 -328.5zM681 90q0 -35 26 -61q27 -27 62 -27q37 0 62.5 25t25.5 63t-25 63t-63 25t-63 -25t-25 -63zM681 -297q0 -38 26 -62q26 -26 62 -26q38 0 63 25t25 63t-25.5 64.5t-62.5 26.5t-62.5 -26.5t-25.5 -64.5zM1022 -112q0 -37 27 -65.5t62 -28.5q37 0 64 28t27 66 q0 35 -27 61.5t-64 26.5q-35 0 -62 -26.5t-27 -61.5zM1022 271q0 -36 26 -62t63 -26q38 0 64.5 25.5t26.5 62.5t-26.5 63.5t-64.5 26.5q-36 0 -62.5 -26.5t-26.5 -63.5zM1022 -504q0 -37 26.5 -64t62.5 -27q37 0 64 26.5t27 64.5q0 35 -27 61.5t-64 26.5q-35 0 -62 -26.5 t-27 -61.5zM1367 90q0 -33 26 -61q27 -27 64 -27t62.5 25t25.5 63t-25 63t-63 25t-64 -25t-26 -63zM1367 -297q0 -36 26 -62t64 -26t63 25t25 63t-25.5 64.5t-62.5 26.5t-63.5 -26.5t-26.5 -64.5zM1472 1369q108 108 265 108t266.5 -111t109.5 -269q0 -94 -54 -196 q-154 154 -373 154h-33q-47 186 -181 314z" />
<glyph unicode="&#xf039;" horiz-adv-x="2296" d="M-2 529q0 -213 148.5 -366.5t363.5 -163.5q18 0 18 18v146q0 20 -18 20q-140 10 -235.5 110t-95.5 236q0 135 91 234.5t225 110.5l56 7q20 0 20 20l7 53q17 173 147 290t306 117q175 0 305 -116.5t149 -290.5l6 -61q0 -19 20 -19h171q145 0 248 -101.5t103 -243.5 q0 -136 -95 -236t-234 -110q-22 0 -22 -20v-146q0 -18 22 -18q213 7 361.5 161.5t148.5 368.5q0 118 -46 214q126 153 126 358q0 151 -75.5 280.5t-204.5 205t-280 75.5q-244 0 -419 -187q-132 67 -284 67q-226 0 -401.5 -140t-224.5 -359q-177 -42 -292 -185.5t-115 -328.5 zM631 435q0 -60 45.5 -104t108.5 -44t106.5 43t43.5 105q0 41 -37.5 109t-70.5 107q-3 4 -19.5 21.5t-22.5 25.5l-38 -43q-44 -48 -80 -112.5t-36 -107.5zM950 10q0 -101 73.5 -175t175.5 -74q103 0 177 74t74 175q0 43 -25 103t-60 111q-74 95 -138 159q-9 7 -28 26 l-62 -62q-71 -68 -129 -166.5t-58 -170.5zM1107 725q0 -43 30 -71.5t76 -28.5q41 0 70 28.5t29 71.5q0 65 -99 172l-27 -28q-30 -32 -54.5 -74.5t-24.5 -69.5zM1469 1369q107 106 265 106q156 0 266 -109t110 -265q0 -101 -54 -197q-160 154 -374 154h-33q-45 188 -180 311z " />
<glyph unicode="&#xf03a;" horiz-adv-x="2294" d="M0 533q0 -176 106.5 -317.5t274.5 -191.5l-69 -177q-7 -22 15 -22h226l-122 -436h31l435 586q6 7 1.5 15t-15.5 8h-232l264 498q12 23 -14 23h-316q-15 0 -20 -15l-118 -312q-114 29 -189.5 125t-75.5 216q0 134 90.5 233.5t224.5 111.5l56 7q21 0 21 18l8 55 q17 174 146.5 290.5t305.5 116.5q175 0 305 -116.5t149 -290.5l7 -62q0 -18 19 -18h173q145 0 248 -101.5t103 -243.5q0 -137 -96 -237.5t-235 -110.5q-20 0 -20 -19v-147q0 -18 20 -18q213 7 361.5 162t148.5 370q0 116 -44 213q122 160 122 351q0 114 -45 217.5 t-120 178.5t-179 119.5t-217 44.5q-118 0 -226 -48t-186 -134q-131 70 -288 70q-227 0 -402 -139.5t-225 -359.5q-177 -41 -292 -185t-115 -328zM872 -520q0 -28 17 -54.5t49 -32.5q3 0 8.5 -1t10 -1.5t8.5 -0.5q68 5 85 65l31 113q10 35 -9.5 67.5t-56.5 43.5 q-35 10 -67.5 -9t-43.5 -57l-27 -107q-5 -25 -5 -26zM1015 -11q0 -24 16.5 -48t49.5 -36q35 -12 67 5.5t43 56.5l32 111q10 40 -8.5 72t-56.5 39q-36 11 -68.5 -7.5t-44.5 -56.5l-27 -109q0 -3 -1 -8.5t-1.5 -10t-0.5 -8.5zM1317 -184q0 -30 17 -55.5t50 -34.5q25 -5 29 -5 q63 0 82 64l26 113q11 35 -6 67t-53 44q-40 10 -73 -9.5t-40 -56.5l-30 -106q-2 -8 -2 -21zM1462 322q0 -26 17 -50.5t52 -36.5q27 -3 28 -3q19 0 40 9q31 16 42 56l31 111q10 35 -9.5 67.5t-56.5 43.5q-36 11 -68 -7.5t-43 -56.5l-30 -109q-3 -14 -3 -24zM1473 1373 q106 102 261 102q157 0 267 -110.5t110 -267.5q0 -101 -52 -190q-158 154 -372 154h-34q-49 185 -180 312z" />
<glyph unicode="&#xf03b;" horiz-adv-x="2288" d="M0 529q0 -178 106 -318t273 -187l-68 -179q-8 -23 15 -23h226l-111 -447h30l423 600q6 7 1.5 15t-15.5 8h-232l264 492q11 23 -15 23h-314q-14 0 -24 -15l-114 -306q-114 28 -188.5 122t-74.5 215q0 133 89.5 230.5t223.5 113.5l57 4q19 0 19 19l8 57q11 113 74 206.5 t162.5 146.5t214.5 53q173 0 303 -117t148 -289l8 -60q0 -20 18 -20h173q142 0 245.5 -102t103.5 -242q0 -138 -96 -239.5t-232 -108.5q-21 0 -21 -19v-143q0 -18 21 -18q139 4 256 76.5t184 192.5t67 259q0 117 -45 214q125 148 125 353q0 113 -44.5 216t-119.5 178 t-178 119.5t-216 44.5q-247 0 -412 -185q-129 69 -288 69q-225 0 -400 -139.5t-224 -357.5q-176 -41 -291 -184.5t-115 -327.5zM846 -525q0 -26 15.5 -49t48.5 -33q3 0 8.5 -1t10 -1.5t8.5 -0.5q67 0 85 64l259 948q10 37 -7 68.5t-52 42.5q-37 11 -69.5 -6.5t-42.5 -53.5 l-261 -949q-3 -27 -3 -29zM1288 -201q0 -64 66 -85q27 -3 28 -3q18 0 37 8q32 14 45 59l175 624q10 37 -8 68.5t-54 42.5q-37 11 -69 -6.5t-42 -53.5l-173 -628q-5 -23 -5 -26zM1466 1367q108 102 264 102q155 0 265 -109t110 -264q0 -101 -54 -197q-154 154 -371 154h-34 q-45 183 -180 314z" />
<glyph unicode="&#xf03c;" horiz-adv-x="1120" d="M0 1160q0 80 57 137t137 57q79 0 135.5 -57t56.5 -137t-56.5 -137t-135.5 -57q-80 0 -137 57t-57 137zM94 1160q0 -42 29 -71q30 -30 71 -30t71 30t30 71t-30 71t-71 30q-42 0 -71 -29.5t-29 -71.5zM509 688q0 -123 68 -219q36 -50 99 -79.5t143 -29.5q234 0 293 178 q6 23 -6.5 43.5t-35.5 24.5q-23 6 -43 -7t-25 -36q0 -1 -1.5 -5.5l-2.5 -7.5q-18 -30 -48 -48q-50 -30 -131 -30q-50 0 -89 17q-64 27 -91 95q-18 44 -18 104v344q0 24 3 48q6 61 48 111q47 56 147 56q83 0 131 -29q32 -19 48 -48q1 -3 2.5 -8.5t1.5 -6.5q6 -22 25 -32.5 t43 -5.5q23 5 35.5 24.5t6.5 42.5v1l-9 25q-8 18 -29.5 46t-48.5 47q-33 24 -87.5 40t-118.5 16q-81 0 -143.5 -28.5t-97.5 -77.5q-69 -95 -69 -221v-344z" />
<glyph unicode="&#xf03d;" horiz-adv-x="2216" d="M0 531q0 -214 149 -367t363 -163q18 0 18 18v143q0 19 -18 19q-137 7 -233.5 109t-96.5 241q0 133 90.5 230D29BADA4A" />
<glyph unicode="&#xf03e;" horiz-adv-x="2212" d="M0 527q0 -105 40 -200.5t108.5 -165t163 -112.5t199.5 -48q18 0 18 18v142q0 20 -18 20q-139 10 -234 110t-95 236q0 134 90.5 233.5t223.5 110.5l56 8q21 0 21 18l8 55q11 114 73.5 207.5t162 146t214.5 52.5q175 0 305.5 -115t148.5 -288l6 -61q0 -19 20 -19h172 q144 0 247 -103t103 -245q0 -136 -95 -236t-234 -110q-21 0 -21 -20v-142q0 -18 21 -18q214 10 361.5 161.5t147.5 364.5q0 143 -71.5 264.5t-193.5 192.5t-265 71h-34q-53 213 -225.5 350t-392.5 137q-225 0 -400 -141.5t-225 -360.5q-177 -42 -291.5 -185.5t-114.5 -327.5 zM664 392q0 -119 59.5 -220.5t161 -161.5t219.5 -60q184 0 315 130.5t131 311.5q0 37 -27 64t-65 27t-65.5 -27t-27.5 -64q0 -107 -76.5 -184t-184.5 -77q-106 0 -182.5 77t-76.5 184q0 96 57 171t140 82l-44 -42q-24 -24 -24 -61q0 -40 24 -70q22 -24 56.5 -25t74.5 25 l194 199q27 27 27 62q0 40 -27 65l-194 195q-30 28 -66 28q-37 0 -63 -27t-26 -65t24 -62l37 -38q-160 -27 -265.5 -149t-105.5 -288z" />
<glyph unicode="&#xf040;" horiz-adv-x="2211" d="M0 530q0 -213 148.5 -366t362.5 -163q18 0 18 18v142q0 20 -18 20q-137 7 -233 108.5t-96 240.5q0 132 90 230t224 114h56q21 0 21 19l6 61q17 173 147 290t305 117q173 0 303.5 -117t148.5 -290l8 -61q0 -19 19 -19h172q142 0 246 -102.5t104 -241.5q0 -138 -96.5 -240 t-232.5 -109q-21 0 -21 -20v-142q0 -18 21 -18q139 4 256 76t184.5 192.5t67.5 260.5q0 107 -42 204t-113 167t-169 111.5t-205 41.5h-34q-53 214 -225 350.5t-392 136.5q-226 0 -401 -140.5t-224 -358.5q-177 -41 -291.5 -184.5t-114.5 -327.5zM741 463q0 -40 26 -68 q24 -24 65 -24q39 0 66 24l118 122v-424q0 -38 25 -65t63 -27q37 0 64 27t27 65v420l120 -118q64 -49 130 0q26 24 26 66q0 38 -26 66l-276 274q-26 26 -64 26q-39 0 -63 -26l-275 -274q-26 -26 -26 -64z" />
<glyph unicode="&#xf041;" horiz-adv-x="2216" d="M0 531q0 -214 149 -367t363 -163q18 0 18 18v143q0 19 -18 19q-137 7 -233.5 109t-96.5 241q0 133 90.5 230EF7A22A5D" />
<glyph unicode="&#xf042;" horiz-adv-x="386" d="M0 1349q0 80 57 137t137 57q79 0 135.5 -57t56.5 -137t-56.5 -137.5t-135.5 -57.5t-136.5 57.5t-57.5 137.5zM94 1349q0 -42 29 -71q30 -30 71 -30t71 30t30 71t-30 70.5t-71 29.5q-42 0 -71 -29t-29 -71z" />
<glyph unicode="&#xf043;" horiz-adv-x="677" d="M0 542q0 -31 20.5 -51.5t50.5 -20.5h306q30 0 50.5 20.5t20.5 51.5q0 30 -20.5 49.5t-50.5 19.5h-132l414 414q19 22 19 53q0 29 -19 49q-20 19 -53 19q-32 0 -51 -19l-412 -413v133q0 31 -20.5 51.5t-51.5 20.5q-30 0 -50.5 -21t-20.5 -51v-305z" />
<glyph unicode="&#xf044;" horiz-adv-x="690" d="M0 574q0 -35 27 -59l256 -261q25 -25 62 -25q38 0 63 25l256 261q26 23 26 59t-24 60.5t-60 24.5t-61 -25l0AC43F6A4D" />
<glyph unicode="&#xf045;" horiz-adv-x="1138" d="M0 1157q0 80 57 137t137 57q79 0 135.5 -57t56.5 -137t-56.5 -137.5t-135.5 -57.5t-136.5 57.5t-57.5 137.5zM94 1157q0 -42 29 -71q30 -30 71 -30t71 30t30 71t-30 70.5t-71 29.5q-42 0 -71 -29t-29 -71zM565 422q0 -23 16.5 -39.5t39.5 -16.5t39.5 16.5t16.5 39.5v404 h305q23 0 39.5 17t16.5 40q0 24 -16 40t-40 16h-305v291h408q23 0 38 16t15 40t-15 40t-38 16h-509q-11 0 -11 -12v-908z" />
<glyph unicode="&#xf046;" horiz-adv-x="2324" d="M0 635q0 42 29 66q23 24 66 24h222q39 0 64.5 -25.5t25.5 -64.5q0 -38 -26 -65t-64 -27h-222q-39 0 -67 27t-28 65zM99 93q0 37 28 65q26 25 65 25h1942q39 0 66 -26t27 -64t-27.5 -65.5t-65.5 -27.5h-1942q-38 0 -65.5 27.5t-27.5 65.5zM317 1391q0 41 25 63 q27 29 66 29q38 0 65 -29l154 -156q28 -26 28 -64q0 -40 -25.5 -65.5t-64.5 -25.5q-35 0 -64 26l-159 157q-25 22 -25 65zM594 635q0 -139 57 -249q5 -15 26 -15h178q12 0 14.5 6.5t-7.5 17.5q-85 104 -85 240q0 159 114 271t272 112q159 0 271.5 -112t112.5 -271 q0 -137 -85 -240q-6 -10 -6 -13q-1 -5 3 -8t11 -3h181q14 0 22 15q60 113 60 249q0 153 -77 284.5t-208.5 208.5t-284.5 77t-284.5 -77t-208 -208.5t-76.5 -284.5zM1071 1481v223q0 38 27 66t65 28t66 -28t28 -66v-223q0 -38 -28 -66t-66 -28t-65 28t-27 66zM1671 1234 q0 39 26 64l154 156q27 29 66 29q40 0 66.5 -26.5t26.5 -65.5q0 -41 -24 -65l-161 -157q-26 -24 -63 -24q-40 -1 -65.5 24t-25.5 65zM1919 635q0 43 26 66q23 24 63 24h223q39 0 66.5 -25.5t27.5 -64.5q0 -38 -28 -65t-66 -27h-223q-37 0 -63 27t-26 65z" />
<glyph unicode="&#xf047;" horiz-adv-x="2148" d="M0 94q0 42 30 66q22 25 67 25h1956q40 0 68 -26t28 -65q0 -38 -28.5 -66.5t-67.5 -28.5h-1956q-40 0 -68.50C5D862ACB" />
<glyph unicode="&#xf048;" horiz-adv-x="1080" d="M0 734q0 -38 25 -63l262 -256q23 -26 58 -26q36 0 61 24t25 60t-25 61l-112 112h703q36 0 59.5 25.5t23.5 61.5t-23.5 61.5t-59.5 26.5h-703l112 113q25 25 25 59q0 36 -25 61t-61 25q-33 0 -58 -28l-262 -256q-25 -25 -25 -61z" />
<glyph unicode="&#xf04a;" horiz-adv-x="2632" d="M0 99q0 -36 27 -61t66 -25h1985q38 0 64.5 25t26.5 61q0 39 -26 65.5t-65 26.5h-1985q-38 0 -65.5 -27t-27.5 -65zM278 431q0 -38 28 -63q22 -29 63 -29h1985q37 0 62 27t25 65q0 37 -25 62t-62 25h-1985q-38 0 -64.5 -25t-26.5 -62zM294 689v5q-7 -24 13 -24h154 q9 0 20 16q38 83 113.5 136t165.5 60l57 8q20 0 20 19l6 53q17 172 145.5 287.5t302.5 115.5q172 0 301 -114t147 -285l7 -61q0 -19 22 -19h169q103 0 187 -55t125 -145q11 -16 23 -16h151q19 0 16 24q-35 89 -49 113q116 104 160 274l18 70q4 10 -1.5 17t-12.5 7l-66 23 q-143 41 -217.5 169t-39.5 273l14 62q8 15 -14 25l-90 25q-175 43 -343 -28t-263 -226q-127 49 -244 49q-222 0 -395.5 -140t-223.5 -357q-135 -32 -236.5 -129t-141.5 -232zM463 -226q0 -38 28 -63q27 -29 63 -29h1989q37 0 63 27t26 65q0 37 -26 62t-63 25h-1989 q-38 0 -64.5 -25t-26.5 -62zM1690 1403q56 92 150.5 142t199.5 40q-11 -167 75 -312.5t237 -215.5q-24 -56 -80 -114q-147 121 -335 121h-34q-51 210 -213 339z" />
<glyph unicode="&#xf04b;" horiz-adv-x="686" d="M0 741q0 -126 61 -232t167.5 -167.5t232.5 -61.5q30 0 51.5 23t21.5 54t-21 51.5t-52 20.5q-130 0 -220.5 0994CF2A4A" />
<glyph unicode="&#xf04c;" horiz-adv-x="1115" d="M0 674q0 -151 75.5 -279.5t204 -203t278.5 -74.5q153 0 281 74t202 202t74 281q0 38 -25.5 65t-62.5 27t-601A9BCEAA8" />
<glyph unicode="&#xf04d;" horiz-adv-x="1081" d="M1 799q0 -36 24.5 -61t59.5 -21h702l-110 -115q-26 -26 -26 -59q0 -36 25.5 -61t61.5 -25q34 1 57 29l261 00B0AFAA2F" />
<glyph unicode="&#xf04e;" horiz-adv-x="851" d="M0 1027q0 41 40.5 108t77.5 111q10 12 25 29.5t17 19.5l39 -46q44 -49 81 -114t37 -108q0 -66 -45.5 -113t00A1717A47" />
<glyph unicode="&#xf050;" horiz-adv-x="2539" d="M0 521q0 -39 30 -66q26 -30 67 -30h1567q46 0 78 -32t32 -79q0 -46 -31.5 -76.5t-78.5 -30.5t-78 31q-26 28 -64 28q-40 0 -68.5 -27.5t-28.5 -65.5q0 -40 30 -67q90 -88 209 -88q125 0 214 86t89 210t-89.5 213.5t-213.5 89.5h-1567q-40 0 -68.5 -28t-28.5 -68zM0 871 q0 -37 30 -65q28 -28 67 -28h2138q125 0 214.5 87t89.5 210q0 124 -89.5 212t-214.5 88q-123 0 -208 -85q-29 -26 -29 -71q0 -41 27.5 -67t67.5 -26q39 0 67 26q30 33 75 33q46 0 77.5 -32t31.5 -78t-31.5 -77t-77.5 -31h-2138q-40 0 -68.5 -28t-28.5 -68z" />
<glyph unicode="&#xf051;" horiz-adv-x="2613" d="M0 693q0 40 32 74q36 31 75 31h248q43 0 72 -31t29 -74q0 -46 -29 -77t-72 -31h-248q-43 0 -75 32.5t-32 75.5zM355 1544q0 43 28 73q36 31 75 31q42 0 73 -31l175 -176q30 -35 30 -74q0 -45 -29 -75t-70 -30q-39 0 -75 31l-179 173q-28 34 -28 78zM568 104q0 45 31 73 q28 28 73 28h281l332 312q16 13 36 0l337 -312h295q43 0 73.5 -29.5t30.5 -71.5q0 -43 -30.5 -74t-73.5 -31h-361q-16 0 -31 8l-257 242l-255 -242q-13 -8 -30 -8h-347q-43 0 -73.5 31t-30.5 74zM667 693q0 -155 66 -282q4 -19 27 -19h201q12 0 16 9t-2 20 q-102 123 -102 272q0 180 128 306t308 126q179 0 305.5 -126t126.5 -306q0 -150 -101 -272q-7 -11 -3.5 -20t16.5 -9h203q21 0 25 19q66 123 66 282q0 130 -51 248t-136.5 203.5t-203.5 136t-247 50.5q-130 0 -248.5 -50.5t-205 -136t-137.5 -203.5t-51 -248zM1203 1648v245 q0 46 30 75.5t76 29.5q45 0 74.5 -30t29.5 -75v-245q0 -46 -29.5 -75.5t-74.5 -29.5q-46 0 -76 29.5t-30 75.5zM1880 1367q0 40 29 74l173 176q31 31 75 31t74 -30.5t30 -73.5q0 -46 -28 -78l-180 -173q-34 -31 -75 -31q-43 0 -70.5 29.5t-27.5 75.5zM2159 693q0 43 28.5 74 t70.5 31h251q43 0 74 -31t31 -74q0 -44 -31 -76t-74 -32h-251q-43 0 -71 31t-28 77z" />
<glyph unicode="&#xf052;" horiz-adv-x="2585" d="M0 681q0 44 32 72q28 28 73 28h246q43 0 71 -28.5t28 -71.5q0 -45 -28.5 -75.5t-70.5 -30.5h-246q-43 0 -707CFBEAAF2" />
<glyph unicode="&#xf053;" horiz-adv-x="685" d="M0 393q0 86 39.5 160.5t111.5 124.5v668q0 81 55.5 137t136.5 56t137 -56t56 -137v-668q71 -50 110.5 -124.5t39.5 -160.5q0 -143 -100 -243t-243 -100t-243 100t-100 243zM118 393q0 -94 66 -160.5t159 -66.5q94 0 162 67.5t68 159.5q0 63 -33 116.5t-89 83.5l-19 9 q-10 4 -10 20v724q0 32 -22.5 54t-56.5 22q-33 0 -56 -22t-23 -54v-724q0 -16 -9 -20l-20 -9q-55 -30 -86 -83t-31 -117z" />
<glyph unicode="&#xf054;" horiz-adv-x="339" d="M0 393q0 -72 49 -122t119 -50t120.5 50t50.5 122q0 64 -43.5 113t-105.5 57v495q0 6 -7 13t-15 7t-13.5 -6t-5.5 -14v-495q-62 -8 -105.5 -57t-43.5 -113z" />
<glyph unicode="&#xf055;" horiz-adv-x="685" d="M0 393q0 86 39.5 160.5t111.5 124.5v668q0 81 55.5 137t136.5 56t137 -56t56 -137v-668q71 -50 110.5 -124.5t39.5 -160.5q0 -143 -100 -243t-243 -100t-243 100t-100 243zM118 393q0 -94 66 -160.5t159 -66.5q94 0 162 67.5t68 159.5q0 63 -33 116.5t-89 83.5l-19 9 q-10 4 -10 20v724q0 32 -22.5 54t-56.5 22q-33 0 -56 -22t-23 -54v-724q0 -16 -9 -20l-20 -9q-55 -30 -86 -83t-31 -117zM170 393q0 -72 49 -122t119 -50t121 50.5t51 121.5q0 64 -44 113t-106 57v495q0 6 -7 13t-15 7t-13.5 -6t-5.5 -14v-495q-62 -8 -105.5 -57t-43.5 -113 z" />
<glyph unicode="&#xf056;" horiz-adv-x="1484" d="M0 718q0 -71 74 -121q135 -95 408 -95q123 0 228 21q111 24 181 75t70 120q0 21 -8 42q142 35 223 94.5t81 136.5q0 19 -6 41q234 83 234 224q0 90 -102 160q-200 133 -586 133q-182 0 -330 -32q-159 -32 -257.5 -102t-98.5 -159q0 -53 33 -97q-121 -69 -121 -168 q0 -77 75 -135q-98 -57 -98 -138zM41 411q0 -75 92.5 -117.5t232.5 -42.5q142 0 235 42.5t93 117.5q0 28 -18 47t-46 19q-23 0 -41 -16t-23 -39q-20 -16 -75 -29.5t-125 -13.5q-113 0 -183 32q16 16 17.5 41t-10.5 42q-16 22 -41.5 27t-47.5 -9q-60 -40 -60 -101zM128 718 q0 1 13 12q9 9 38.5 23t65.5 24l8 4q166 -55 387 -55q97 0 176 11l18 -16q-9 -16 -43 -34q-41 -22 -127 -39t-182 -17t-182.5 17t-128.5 39q-34 15 -43 31zM136 143q0 -65 73.5 -100t182.5 -35q111 0 186 35t75 100q0 26 -19 46t-45 20q-48 0 -63 -49q-40 -25 -134 -25 q-82 0 -131 25q-15 49 -63 49q-26 0 -44 -19t-18 -47zM150 991q0 8 10 19q25 31 97 60q197 -105 540 -105q175 0 329 32v-6q0 -15 -19 -31q-42 -37 -156 -70q-124 -37 -311 -37q-188 0 -312 37q-119 33 -159 70q-19 15 -19 31zM239 1256q0 18 24 40q46 43 183 83 q146 43 351 43q206 0 354 -43q138 -40 183 -83q23 -23 23 -40t-23 -38q-45 -43 -183 -84q-148 -43 -354 -43q-205 0 -351 43q-138 40 -183 84q-24 21 -24 38z" />
<glyph unicode="&#xf057;" horiz-adv-x="676" d="M0 557q0 -31 18 -50q20 -19 54 -19q31 0 50 19l412 413v-133q0 -31 20.5 -51.5t51.5 -20.5q30 0 50.5 21t20.5 51v306q0 31 -20.5 51.5t-50.5 20.5h-307q-30 0 -50 -20.5t-20 -51.5q0 -30 20 -50t50 -20h133l-414 -414q-18 -21 -18 -52z" />
<glyph unicode="&#xf058;" horiz-adv-x="691" d="M1 1013q-1 -36 23.5 -61.5t60.5 -24.5q35 -2 60 25l113 112v-703q-1 -36 24.5 -60t62.5 -23q35 -2 61 22t27 60v703l112 -112q24 -25 60 -25q37 0 61.5 24.5t24.5 60.5q-2 37 -27 58l-255 262q-25 24 -63 27q-38 -2 -63 -28l-256 -260q-26 -22 -26 -57z" />
<glyph unicode="&#xf059;" horiz-adv-x="1533" d="M0 769q0 156 60.5 298.5t163 244.5t244 163t297.5 61q157 0 299 -61t245 -163.5t164 -244.5t61 -297q0 -1505F18C2A5D " />
<glyph unicode="&#xf05a;" horiz-adv-x="1533" d="M0 769q0 156 60.5 298.5t163 244.5t244 163t297.5 61q157 0 299 -61t245 -163.5t164 -244.5t61 -297q0 -156 -61 -298.5t-164 -245.5t-245 -163.5t-298 -60.5q-155 0 -297 60.5t-244.5 163t-163.5 244.5t-61 299zM168 769q0 -162 80.5 -299.5t218.5 -217t299 -79.5 q121 0 232 47.5t191.5 127.5t128 190.5t47.5 231.5q0 244 -178 422q-178 176 -422 176q-121 0 -231.5 -48t-190.5 -128t-127.5 -191t-47.5 -232zM435 761q0 7 12 10l604 250q11 2 16.5 -3.5t1.5 -16.5l-248 -604q-2 -11 -11 -11q-11 0 -16 11l-103 230q-9 14 -14 15 l-230 104q-12 4 -12 15z" />
<glyph unicode="&#xf05b;" horiz-adv-x="1533" d="M0 769q0 156 60.5 298.5t163 244.5t244 163t297.5 61q157 0 299 -61t245 -163.5t164 -244.5t61 -297q0 -156 -61 -298.5t-164 -245.5t-245 -163.5t-298 -60.5q-155 0 -297 60.5t-244.5 163t-163.5 244.5t-61 299zM168 769q0 -162 80.5 -299.5t218.5 -217t299 -79.5 q121 0 232 47.5t191.5 127.5t128 190.5t47.5 231.5q0 244 -178 422q-178 176 -422 176q-121 0 -231.5 -48t-190.5 -128t-127.5 -191t-47.5 -232zM518 998q-2 11 3.5 17t15.5 2l602 -249q12 -2 12 -10q0 -9 -12 -14l-229 -104q-10 -4 -15 -15l-104 -230q-5 -11 -14 -11 q-8 0 -10 11z" />
<glyph unicode="&#xf05c;" horiz-adv-x="1537" d="M0 765q0 209 103.5 386.5t280.5 280.5t385 103q156 0 298 -61t245 -164t164 -245.5t61 -299.5q0 -156 -61 -298.5t-164 -245t-245 -163t-298 -60.5q-157 0 -299.5 61t-245.5 164t-163.5 244.5t-60.5 297.5zM169 765q0 -243 177 -422q177 -177 423 -177q162 0 300 80.5 t219 218.5t81 300t-81 300.5t-219 219t-300 80.5t-300 -80.5t-219 -219t-81 -300.5zM503 507l256 600q2 11 10 11t10 -11l255 -600q4 -11 -1.5 -17t-16.5 0l-237 89q-10 4 -20 0l-239 -89q-10 -6 -16 0t-1 17z" />
<glyph unicode="&#xf05d;" horiz-adv-x="1537" d="M0 769q0 156 60.5 298.5t163 244.5t244 163t297.5 61q157 0 299 -61t245 -163.5t164 -244.5t61 -297q0 -156 -61 -298.5t-164 -245.5t-245 -163.5t-298 -60.5q-155 0 -297 60.5t-244.5 163t-163.5 244.5t-61 299zM168 769q0 -162 80.5 -299.5t218.5 -217t299 -79.5 q121 0 232 47.5t191.5 127.5t128 190.5t47.5 231.5q0 244 -178 422q-178 176 -422 176q-121 0 -231.5 -48t-190.5 -128t-127.5 -191t-47.5 -232zM375 777q0 10 10 14l231 104q10 5 15 15l103 229q9 12 16 12q8 0 11 -12l248 -605q2 -11 -2 -15t-16 -2l-606 248q-10 3 -10 12 z" />
<glyph unicode="&#xf05e;" horiz-adv-x="1533" d="M0 769q0 156 60.5 298.5t163 244.5t244 163t297.5 61q157 0 299 -61t245 -163.5t164 -244.5t61 -297q0 -156 -61 -298.5t-164 -245.5t-245 -163.5t-298 -60.5q-155 0 -297 60.5t-244.5 163t-163.5 244.5t-61 299zM168 769q0 -162 80.5 -299.5t218.5 -217t299 -79.5 q121 0 232 47.5t191.5 127.5t128 190.5t47.5 231.5q0 244 -178 422q-178 176 -422 176q-121 0 -231.5 -48t-190.5 -128t-127.5 -191t-47.5 -232zM525 536l250 605q1 10 10 10q10 0 14 -10l104 -231q2 -9 16 -14l230 -104q11 -4 11 -14q0 -9 -11 -12l-605 -248q-10 -4 -15 1 t-4 17z" />
<glyph unicode="&#xf060;" horiz-adv-x="1538" d="M0 766q0 156 61.5 298.5t164.5 245.5t245 163.5t298 60.5t298.5 -60.5t245.5 -163.5t164 -245t61 -299t-61 -299t-164 -244.5t-245.5 -163t-298.5 -60.5t-298.5 61t-245.5 164t-164 245t-61 297zM170 766q0 -245 177 -422q176 -176 422 -176q163 0 301.5 80.5t219 218 t80.5 299.5q0 121 -47.5 232t-128.5 191.5t-192 128t-233 47.5q-121 0 -231.5 -47.5t-191 -128t-128.5 -191.5t-48 -232zM504 1025q-5 11 1 16.5t16 0.5l238 -89q10 -4 23 0l235 89q10 5 16 -0.5t2 -16.5l-253 -599q-3 -10 -13 -10q-7 0 -10 10z" />
<glyph unicode="&#xf061;" horiz-adv-x="1541" d="M0 769q0 157 61.5 300t165 246.5t246 164.5t298.5 61t299 -61t246 -164.5t164.5 -246.5t61.5 -300t-61.5 -300t-165 -245.5t-246 -163.5t-298.5 -61q-157 0 -300 61t-246 164.5t-164 246t-61 298.5zM170 769q0 -245 179 -424q177 -177 422 -177q163 0 302 81t220 219.5 t81 300.5t-81 300.5t-220 219.5t-302 81q-162 0 -300.5 -81t-219.5 -219.5t-81 -300.5zM418 769q0 9 12 10l601 258q11 5 16.5 -1.5t0.5 -16.5l-89 -240q-7 -10 0 -20l89 -238q5 -10 -0.5 -16t-16.5 -1l-601 255q-12 1 -12 10z" />
<glyph unicode="&#xf062;" horiz-adv-x="1816" d="M0 1000q0 150 94.5 268.5t239.5 150.5q41 180 184.5 295t328.5 115q180 0 322 -112.5t184 -286.5h29q180 00E904C1A5C" />
<glyph unicode="&#xf063;" horiz-adv-x="1636" d="M0 562q0 36 25 59.5t68 23.5h609q43 0 68 -23.5t25 -59.5q0 -44 -24.5 -68.5t-68.5 -24.5h-609q-43 0 -68 052DEA8AEA" />
<glyph unicode="&#xf064;" horiz-adv-x="2211" d="M0 523q0 185 113.5 328.5t292.5 187.5q50 218 224.5 358t400.5 140q220 0 392.5 -136.5t224.5 -350.5h34q10A81BA5A19" />
<glyph unicode="&#xf065;" horiz-adv-x="2864" d="M0 525q0 -138 68 -257t185.5 -191t256.5 -76q18 0 18 18v142q0 20 -18 20q-136 7 -232.5 108.5t-96.5 235.5q0 132 90.5 230t223.5 114l56 6q19 0 19 20l8 54q17 175 145.5 291.5t303.5 116.5q174 0 304.5 -116.5t147.5 -288.5l8 -62q0 -18 18 -18h172q144 0 246 -102.5 t102 -244.5q0 -134 -96.5 -235.5t-231.5 -108.5q-20 0 -20 -20v-142q0 -18 20 -18q212 7 360 160t148 364q0 121 -46 217q126 151 126 352q0 150 -75 278.5t-204 203.5t-279 75q-246 0 -413 -185q-130 70 -287 70q-225 0 -399 -139.5t-223 -356.5q-179 -44 -292 -187 t-113 -328zM585 -294q0 -33 26 -61q28 -26 62 -26q38 0 63 25t25 62q0 38 -25.5 63t-62.5 25t-62.5 -25t-25.5 -63zM677 93q0 -38 25.5 -65t62.5 -27t62.5 27t25.5 65q0 36 -25.5 62t-62.5 26t-62.5 -26t-25.5 -62zM879 -502q0 -35 26 -61q27 -27 62 -27q38 0 64.5 25 t26.5 63t-27 64.5t-64 26.5q-35 0 -61.5 -27t-26.5 -64zM895 1832q0 -39 26 -63l70 -70q26 -26 57 -27q33 -5 65 23.5t32 67.5t-26 68l-68 65q-24 27 -62 27q-40 0 -67 -26.5t-27 -64.5zM970 -112q0 -35 27 -64q26 -26 61 -26q38 0 65 26t27 64q0 37 -27 63.5t-65 26.5 q-36 0 -62 -26.5t-26 -63.5zM1016 272q0 -36 26 -62t62 -26q38 0 64.5 25.5t26.5 62.5t-26.5 63t-64.5 26q-36 0 -62 -26t-26 -63zM1269 -294q0 -34 25 -61q28 -26 64 -26q38 0 63 25t25 62q0 38 -25 63t-63 25t-63.5 -25.5t-25.5 -62.5zM1360 93q0 -38 26 -65t63 -27 t62.5 27t25.5 65q0 36 -25.5 62t-62.5 26t-63 -26t-26 -62zM1464 1365q110 106 263 106q155 0 265 -111t110 -266q0 -100 -54 -196q-153 153 -371 153h-34q-47 187 -179 314zM1635 1921q0 -37 27 -62t65 -25t63 25t25 62v218q0 38 -25.5 65t-62.5 27t-64.5 -27.5 t-27.5 -64.5v-218zM2223 1679q0 -37 27 -63q24 -25 59.5 -27.5t66.5 27.5l153 153q28 28 28 65q0 38 -27.5 65t-64.5 27q-35 0 -62 -27l-153 -156q-27 -25 -27 -64zM2309 421q0 -40 26 -66l68 -67q39 -26 68 -26q33 0 59.5 27.5t26.5 65.5q0 36 -28 62l-66 69q-28 26 -65 26 t-63 -26.5t-26 -64.5zM2463 1094q0 -38 28 -63q27 -29 66 -29h216q37 0 64 27t27 65t-27 64.5t-64 26.5h-216q-38 0 -66 -27t-28 -64z" />
<glyph unicode="&#xf066;" horiz-adv-x="2297" d="M0 529q0 -213 149 -366.5t363 -163.5q19 0 19 18v143q0 18 -19 18q-137 8 -233.5 110t-96.5 241q0 133 90.5 231t224.5 114l56 4q21 0 21 19l8 58q17 173 146.5 290t304.5 117q174 0 305 -117t149 -290l8 -61q0 -20 18 -20h173q145 0 248 -101.5t103 -243.5 q0 -138 -97 -240.5t-234 -110.5q-20 0 -20 -18v-143q0 -18 20 -18q214 7 362.5 161.5t148.5 368.5q0 114 -46 214q126 154 126 354q0 152 -75.5 281.5t-204.5 204.5t-280 75q-248 0 -415 -185q-129 69 -289 69q-226 0 -401 -140.5t-225 -358.5q-177 -42 -292 -185.5 t-115 -328.5zM585 -294q0 -33 26 -61q28 -26 62 -26q38 0 63 25t25 62q0 38 -25.5 63t-62.5 25t-62.5 -25t-25.5 -63zM677 93q0 -38 25.5 -65t62.5 -27t62.5 27t25.5 65q0 36 -25.5 62t-62.5 26t-62.5 -26t-25.5 -62zM879 -502q0 -35 26 -61q27 -27 62 -27q38 0 64.5 25 t26.5 63t-27 64.5t-64 26.5q-35 0 -61.5 -27t-26.5 -64zM970 -112q0 -35 27 -64q26 -26 61 -26q38 0 65 26t27 64q0 37 -27 63.5t-65 26.5q-36 0 -62 -26.5t-26 -63.5zM1016 272q0 -36 26 -62t62 -26q38 0 64.5 25.5t26.5 62.5t-26.5 63t-64.5 26q-36 0 -62 -26t-26 -63z M1269 -294q0 -34 25 -61q28 -26 64 -26q38 0 63 25t25 62q0 38 -25 63t-63 25t-63.5 -25.5t-25.5 -62.5zM1360 93q0 -38 26 -65t63 -27t62.5 27t25.5 65q0 36 -25.5 62t-62.5 26t-63 -26t-26 -62zM1472 1369q108 108 265 108t266.5 -111t109.5 -269q0 -94 -54 -196 q-154 154 -373 154h-33q-47 186 -181 314z" />
<glyph unicode="&#xf067;" horiz-adv-x="2331" d="M0 525q0 -212 149 -366t363 -161q19 0 19 18v143q0 18 -19 18q-136 7 -233 109.5t-97 238.5t90.5 235t224.5 110l57 8q21 0 21 18l7 55q17 175 146.5 293t305.5 118q174 0 305 -117.5t149 -290.5l8 -61q0 -19 18 -19h173q145 0 248.5 -103t103.5 -246q0 -136 -97 -238.5 t-233 -109.5q-22 0 -22 -18v-143q0 -18 22 -18q140 4 257 76t184.5 192t67.5 259q0 146 -69 265q118 106 162 275l18 77q2 2 2 8q0 12 -17 17l-65 18q-70 21 -124.5 61t-86 89.5t-47 101t-15.5 101.5q0 43 11 92l12 66q4 15 -15 24l-85 26q-70 17 -133 17q-59 0 -120 -14 t-126 -44t-126 -85.5t-106 -130.5q-129 53 -254 53q-226 0 -401.5 -140.5t-225.5 -359.5q-180 -45 -293.5 -188t-113.5 -329zM590 -299q0 -36 26 -62t62 -26q38 0 63.5 25t25.5 63t-25.5 63t-63.5 25t-63 -25t-25 -63zM635 89q0 -38 25.5 -64.5t62.5 -26.5q38 0 64 26.5 t26 64.5q0 36 -26 62t-64 26q-37 0 -62.5 -26t-25.5 -62zM886 -510q0 -35 26 -61q27 -27 62 -27q38 0 65 25.5t27 62.5q0 38 -27 65.5t-65 27.5q-35 0 -61.5 -27.5t-26.5 -65.5zM954 -118q0 -38 27 -63q26 -26 61 -26q38 0 65.5 26t27.5 63q0 38 -27.5 65.5t-65.5 27.5 q-35 0 -61.5 -27.5t-26.5 -65.5zM1023 270q0 -38 26 -62q26 -26 62 -26q39 0 65.5 25t26.5 63q0 37 -27 63.5t-65 26.5q-36 0 -62 -26.5t-26 -63.5zM1277 -299q0 -36 26 -62t64 -26q37 0 62.5 25.5t25.5 62.5q0 38 -25 63t-63 25t-64 -25t-26 -63zM1322 89q0 -37 27 -64 t64 -27t62.5 26.5t25.5 64.5q0 36 -25.5 62t-62.5 26t-64 -26.5t-27 -61.5zM1441 1395q50 87 138.5 134.5t182.5 49.5q24 0 35 -2v-33q0 -155 83.5 -292.5t231.5 -209.5q-26 -58 -81 -114q-142 126 -344 126h-33q-44 197 -213 341z" />
<glyph unicode="&#xf068;" horiz-adv-x="2883" d="M0 530q0 -179 106.5 -320t275.5 -188l-70 -181q-8 -23 15 -23h227l-152 -449h31l465 604q6 7 2 14.5t-15 70B930ADAAD" />
<glyph unicode="&#xf069;" horiz-adv-x="2883" d="M0 530q0 -179 106.5 -320t275.5 -188l-70 -181q-8 -23 15 -23h227l-152 -449h31l465 604q6 7 2 14.5t-15 7.5h-234l266 496q12 23 -15 23h-316q-15 0 -25 -16l-114 -307q-115 29 -190 123.5t-75 215.5q0 135 90 233t225 114l54 3q19 0 24 15l8 63q17 173 146.5 290.5 t305.5 117.5q174 0 305.5 -117.5t149.5 -290.5l8 -63q0 -18 19 -18h172q143 0 246 -102.5t103 -244.5q0 -139 -95.5 -241.5t-232.5 -109.5q-21 0 -21 -19v-143q0 -18 21 -18q141 4 258.5 76.5t185.5 193t68 261.5q0 117 -46 215q122 154 122 351q0 152 -75.5 281.5t-205 205 t-281.5 75.5q-115 0 -223.5 -48t-187.5 -133q-129 69 -290 69q-227 0 -402.5 -140.5t-224.5 -359.5q-177 -41 -292.5 -186t-115.5 -330zM841 -560q0 -27 17 -52.5t52 -35.5q13 -3 26 -3q69 0 85 65l14 63q10 41 -9 73t-56 39q-34 11 -67 -7.5t-44 -54.5l-14 -63 q-4 -18 -4 -24zM925 -250q0 -36 26 -62t62 -26q38 0 63 25t25 63q0 37 -25 62t-63 25t-63 -25t-25 -62zM991 -8q-2 -24 14.5 -50t48.5 -32q37 -10 68 6t44 60l28 96q11 35 -7.5 67t-56.5 43q-35 11 -68 -8.5t-44 -56.5l-24 -96q-3 -14 -3 -29zM1286 -237q0 -27 16 -51.5 t49 -34.5q5 0 15 -2t15 -2q65 0 81 70l15 64q11 34 -7.5 67t-54.5 44q-40 10 -72.5 -8.5t-43.5 -56.5l-10 -63q0 -2 -1.5 -12t-1.5 -15zM1365 78q0 -37 26 -61q24 -26 62 -26t63 25t25 62q0 38 -25 63t-63 25t-63 -25t-25 -63zM1475 1369q107 103 261 103 q157 0 267.5 -109.5t110.5 -266.5q0 -105 -50 -193q-154 154 -375 154h-33q-47 190 -181 312z" />
<glyph unicode="&#xf06a;" horiz-adv-x="2328" d="M0 529q0 -177 106 -316.5t275 -190.5l-69 -181q-7 -22 15 -22h226l-138 -446h30l451 600q6 7 2 14.5t-15 7.5h-232l264 495q11 23 -14 23h-316q-14 0 -24 -16l-114 -307q-114 29 -189.5 124.5t-75.5 214.5q0 133 90.5 231t224.5 114l56 8q21 0 21 19l8 54 q17 173 146.5 290t304.5 117q174 0 305 -117.5t149 -289.5l8 -61q0 -20 18 -20h173q145 0 248 -101.5t103 -243.5q0 -136 -96 -236t-235 -110q-20 0 -20 -20v-145q0 -19 20 -19q213 7 361.5 161.5t148.5 368.5q0 139 -70 261q122 118 161 280l20 73q1 1 1 7q0 13 -16 17 l-66 18q-92 27 -156 89.5t-90.5 130t-25.5 134.5q0 44 11 91l12 65q4 16 -15 25l-85 26q-75 15 -132 15q-59 1 -120.5 -12.5t-126.5 -43t-125.5 -84t-105.5 -128.5q-136 49 -254 49q-226 0 -401 -140.5t-225 -358.5q-177 -42 -292 -185.5t-115 -328.5zM841 -560 q0 -27 17 -52.5t52 -35.5q13 -3 26 -3q69 0 85 65l14 63q10 41 -9 73t-56 39q-34 11 -67 -7.5t-44 -54.5l-14 -63q-4 -18 -4 -24zM925 -250q0 -36 26 -62t62 -26q38 0 63 25t25 63q0 37 -25 62t-63 25t-63 -25t-25 -62zM991 -8q-2 -24 14.5 -50t48.5 -32q37 -10 68 6t44 60 l28 96q11 35 -7.5 67t-56.5 43q-35 11 -68 -8.5t-44 -56.5l-24 -96q-3 -14 -3 -29zM1286 -237q0 -27 16 -51.5t49 -34.5q5 0 15 -2t15 -2q65 0 81 70l15 64q11 34 -7.5 67t-54.5 44q-40 10 -72.5 -8.5t-43.5 -56.5l-10 -63q0 -2 -1.5 -12t-1.5 -15zM1365 78q0 -37 26 -61 q24 -26 62 -26t63 25t25 62q0 38 -25 63t-63 25t-63 -25t-25 -63zM1440 1395q53 89 143 137.5t188 48.5h23v-34q0 -102 36 -198t108.5 -177t171.5 -129q-27 -60 -81 -110q-146 125 -343 125h-35q-45 201 -211 337z" />
<glyph unicode="&#xf06b;" horiz-adv-x="2883" d="M0 530q0 -179 106.5 -320t275.5 -188l-70 -181q-8 -23 15 -23h227l-152 -449h31l465 604q6 7 2 14.5t-15 707D78F9AB5" />
<glyph unicode="&#xf06c;" horiz-adv-x="2883" d="M0 530q0 -179 106.5 -320t275.5 -188l-70 -181q-8 -23 15 -23h227l-152 -449h31l465 604q6 7 2 14.5t-15 7.5h-234l266 496q12 23 -15 23h-316q-15 0 -25 -16l-114 -307q-115 29 -190 123.5t-75 215.5q0 135 90 233t225 114l54 3q19 0 24 15l8 63q17 173 146.5 290.5 t305.5 117.5q174 0 305.5 -117.5t149.5 -290.5l8 -63q0 -18 19 -18h172q143 0 246 -102.5t103 -244.5q0 -139 -95.5 -241.5t-232.5 -109.5q-21 0 -21 -19v-143q0 -18 21 -18q141 4 258.5 76.5t185.5 193t68 261.5q0 117 -46 215q122 154 122 351q0 152 -75.5 281.5t-205 205 t-281.5 75.5q-115 0 -223.5 -48t-187.5 -133q-129 69 -290 69q-227 0 -402.5 -140.5t-224.5 -359.5q-177 -41 -292.5 -186t-115.5 -330zM1023 -118q0 -39 26 -63q26 -26 62 -26q38 0 65 26t27 63q0 38 -27 65.5t-65 27.5q-35 0 -61.5 -27.5t-26.5 -65.5zM1023 270 q0 -38 26 -62q26 -26 62 -26q39 0 65.5 25t26.5 63q0 37 -27 63.5t-65 26.5q-36 0 -62 -26.5t-26 -63.5zM1023 -510q0 -35 26 -61q27 -27 62 -27q38 0 65 25.5t27 62.5q0 38 -27 65.5t-65 27.5q-35 0 -61.5 -27.5t-26.5 -65.5zM1368 89q0 -38 26.5 -64.5t63.5 -26.5 t62.5 26.5t25.5 64.5q0 36 -25.5 62t-62.5 26t-63.5 -26t-26.5 -62zM1368 -299q0 -36 26 -62t64 -26t63 25.5t25 62.5q0 38 -25 63t-63 25t-64 -25t-26 -63zM1475 1369q107 103 261 103q157 0 267.5 -109.5t110.5 -266.5q0 -105 -50 -193q-154 154 -375 154h-33 q-47 190 -181 312z" />
<glyph unicode="&#xf06d;" horiz-adv-x="2328" d="M0 529q0 -177 106 -316.5t275 -190.5l-69 -181q-7 -22 15 -22h226l-138 -446h30l451 600q6 7 2 14.5t-15 7.5h-232l264 495q11 23 -14 23h-316q-14 0 -24 -16l-114 -307q-114 29 -189.5 124.5t-75.5 214.5q0 133 90.5 231t224.5 114l56 8q21 0 21 19l8 54 q17 173 146.5 290t304.5 117q174 0 305 -117.5t149 -289.5l8 -61q0 -20 18 -20h173q145 0 248 -101.5t103 -243.5q0 -136 -96 -236t-235 -110q-20 0 -20 -20v-145q0 -19 20 -19q213 7 361.5 161.5t148.5 368.5q0 139 -70 261q122 118 161 280l20 73q1 1 1 7q0 13 -16 17 l-66 18q-92 27 -156 89.5t-90.5 130t-25.5 134.5q0 44 11 91l12 65q4 16 -15 25l-85 26q-75 15 -132 15q-59 1 -120.5 -12.5t-126.5 -43t-125.5 -84t-105.5 -128.5q-136 49 -254 49q-226 0 -401 -140.5t-225 -358.5q-177 -42 -292 -185.5t-115 -328.5zM1023 -118 q0 -39 26 -63q26 -26 62 -26q38 0 65 26t27 63q0 38 -27 65.5t-65 27.5q-35 0 -61.5 -27.5t-26.5 -65.5zM1023 270q0 -38 26 -62q26 -26 62 -26q39 0 65.5 25t26.5 63q0 37 -27 63.5t-65 26.5q-36 0 -62 -26.5t-26 -63.5zM1023 -510q0 -35 26 -61q27 -27 62 -27 q38 0 65 25.5t27 62.5q0 38 -27 65.5t-65 27.5q-35 0 -61.5 -27.5t-26.5 -65.5zM1368 89q0 -38 26.5 -64.5t63.5 -26.5t62.5 26.5t25.5 64.5q0 36 -25.5 62t-62.5 26t-63.5 -26t-26.5 -62zM1368 -299q0 -36 26 -62t64 -26t63 25.5t25 62.5q0 38 -25 63t-63 25t-64 -25 t-26 -63zM1440 1395q53 89 143 137.5t188 48.5h23v-34q0 -102 36 -198t108.5 -177t171.5 -129q-27 -60 -81 -110q-146 125 -343 125h-35q-45 201 -211 337z" />
<glyph unicode="&#xf06e;" horiz-adv-x="2267" d="M0 771q0 39 27 66q28 26 64 26h218q37 0 61.5 -27t24.5 -65t-24.5 -64.5t-61.5 -26.5h-218q-37 0 -64 27t-0B2F5A0ABC" />
<glyph unicode="&#xf070;" horiz-adv-x="2267" d="M577 771q0 149 75 277.5t203.5 203.5t277.5 75q112 0 215 -44.5t177.5 -119t118.5 -177.5t44 -215q0 -150 -74.5 -278t-202.5 -202.5t-278 -74.5t-278 74.5t-203 202.5t-75 278zM1053 1134q139 -17 233.5 -123t94.5 -249q0 -133 -83.5 -234.5t-211.5 -129.5q32 -4 47 -4 q156 0 266.5 110.5t110.5 266.5q0 154 -110.5 263t-266.5 109q-42 0 -80 -9z" />
<glyph unicode="&#xf071;" horiz-adv-x="1688" d="M0 239q0 21 1 31v9q0 3 0.5 6t0.5 5t0.5 5t0.5 4v2q0 5 2 12.5t2 9.5v3q0 2 0.5 5t0.5 4q1 6 2.5 12.5t3.5 14.5l3 12q0 1 1 2v2l4 15q1 1 1 2q1 2 1 3v3q6 20 11 30q0 1 2 3q1 2 5 16q27 61 67 115l6 8q1 1 3 4t3 4q1 2 7 6q1 3 4 6t4 6q6 4 7 8q2 1 7 6l7 8l811 889 l-41 -235l727 778l-446 -868l446 337l-404 -811l289 199l-499 -889q0 -1 -2 -5t-3 -5q-1 -2 -2 -5t-2 -4l-2.5 -5l-2.5 -5q-69 -134 -198 -215t-285 -81q-147 0 -272 73t-198 198t-73 272zM128 239q0 -172 121.5 -293.5t293.5 -121.5q131 0 237 75.5t150 196.5q27 68 27 143 q0 172 -121 293t-293 121q-160 0 -277 -107q-65 -57 -101.5 -137t-36.5 -170z" />
<glyph unicode="&#xf072;" horiz-adv-x="2317" d="M0 757q0 38 29 65q27 27 66 27h220q38 0 64.5 -27t26.5 -65q0 -40 -26.5 -67t-64.5 -27h-220q-40 0 -67.5 0D53AF5A7A" />
<glyph unicode="&#xf073;" horiz-adv-x="842" d="M3 781v2q-1 13 0.5 39t10.5 86t26.5 123t54.5 144t87.5 154t133.5 148.5t185 132.5q25 14 52.5 6t40.5 -33q14 -25 6.5 -53t-32.5 -42q-210 -115 -323 -325q86 40 174 40q172 0 295 -122.5t123 -294.5q0 -13 -0.5 -25.5t-4.5 -55t-12 -82t-25 -99t-40.5 -113t-62 -117.5 t-86 -119.5t-115.5 -112t-148 -101.5q-15 -9 -33 -9q-41 0 -62 37q-14 25 -6 52.5t33 40.5q215 120 326 329q-87 -41 -182 -41q-111 0 -206.5 55t-152 150t-57.5 206zM184 786q0 -98 69 -167t166 -69q91 0 158.5 60.5t77.5 150.5l1 24q0 4 1 5q-1 96 -70.5 162.5 t-167.5 66.5q-89 0 -155.5 -58t-77.5 -145l-2 -27v-3z" />
<glyph unicode="&#xf074;" horiz-adv-x="1846" d="M0 1002q0 150 96.5 267t246.5 152q36 178 181.5 293.5t332.5 115.5q180 0 320.5 -110.5t183.5 -288.5h30q10BAB0AAA06" />
<glyph unicode="&#xf075;" horiz-adv-x="2129" d="M0 671q0 107 193 193t502 122q2 150 110.5 257.5t258.5 107.5q151 0 259.5 -107.5t110.5 -257.5q308 -36 50BE8E17AF9" />
<glyph unicode="&#xf076;" horiz-adv-x="1609" d="M0 794q0 31 21 53t51 22q31 0 52 -22t21 -53q0 -30 -21.5 -51t-51.5 -21t-51 21.5t-21 50.5zM211 794q0 31007C281ABE" />
<glyph unicode="&#xf077;" horiz-adv-x="2054" d="M0 605q104 5 176 80.5t72 179.5q0 -104 72 -179.5t176 -80.5q-104 -5 -176 -80.5t-72 -179.5q0 104 -72 179.5t-176 80.5zM248 1373q202 10 342.5 156.5t140.5 349.5q0 -203 141 -349.5t343 -156.5q-133 -6 -244 -75.5t-175.5 -184t-64.5 -248.5q0 204 -140.5 351 t-342.5 157zM602 224q152 7 258 117.5t106 263.5q0 -153 105.5 -263.5t257.5 -117.5q-152 -7 -257.5 -117.5t-105.5 -263.5q0 153 -106 263.5t-258 117.5zM1329 730q152 7 257 117t105 264q0 -153 106 -263.5t258 -117.5q-152 -7 -258 -117t-106 -263q0 153 -105 263 t-257 117z" />
<glyph unicode="&#xf078;" d="M0 753q0 29 1 44q0 3 0.5 7t0.5 6t0.5 7t0.5 8t1 7.5t1 5.5v2q0 4 1.5 15.5t2.5 17.5q0 1 1 1q0 2 0.5 7t00CD937AA5C" />
<glyph unicode="&#xf079;" d="M0 758q0 284 187 498q105 121 254 189.5t317 68.5q154 0 294 -60t241 -161t161 -241t60 -294t-60 -294.5t-0101DCAAA6" />
<glyph unicode="&#xf07a;" d="M0 758q0 191 89 356t242 270q193 131 427 131q206 0 380 -101.5t275.5 -275.5t101.5 -380q0 -154 -60 -2940A358EFAA4" />
<glyph unicode="&#xf07b;" d="M0 758q0 235 130.5 425.5t342.5 275.5q141 56 285 56q206 0 380 -101.5t275.5 -275.5t101.5 -380q0 -154 -050712BA43" />
<glyph unicode="&#xf07c;" d="M0 758q0 181 80.5 340.5t220.5 265t314 138.5q68 13 143 13q206 0 380 -101.5t275.5 -275.5t101.5 -380q0 -154 -60 -294.5t-161.5 -242t-241.5 -161.5t-294 -60q-70 0 -143 14q-174 33 -314 138.5t-220.5 264.5t-80.5 341zM1038 253q135 75 216 210t81 295t-81 295 t-216 210q92 -102 142.5 -232t50.5 -273t-50.5 -273t-142.5 -232z" />
<glyph unicode="&#xf07d;" d="M0 757q0 29 1 43q0 2 0.5 7t0.5 7t0.5 7t0.5 8t1 7t1 5v2q0 5 1.5 16.5t2.5 17.5q0 1 1 2q0 1 0.5 5t0.5 70826C3DADF" />
<glyph unicode="&#xf07e;" d="M0 758q0 154 60 294t161.5 241.5t242 161.5t294.5 60q66 0 141 -13q174 -33 314.5 -138.5t221 -265t80.5 -340.5q0 -275 -175.5 -484.5t-440.5 -259.5q-72 -14 -141 -14q-154 0 -294.5 60t-242 161.5t-161.5 242t-60 294.5zM179 758q0 -161 81.5 -296t217.5 -211 q-92 103 -142.5 233.5t-50.5 273.5t50.5 273t142.5 232q-136 -75 -217.5 -210t-81.5 -295z" />
<glyph unicode="&#xf080;" d="M0 758q0 154 60 294t161.5 241.5t242 161.5t294.5 60q144 0 283 -56q212 -85 343 -275.5t131 -425.5t-131 -426t-343 -277q-137 -55 -283 -55q-154 0 -294.5 60t-242 161.5t-161.5 242t-60 294.5zM179 758q0 -117 46 -224.5t123.5 -185t185 -123.5t224.5 -46q13 0 73 5 q-123 106 -193 255.5t-70 318.5t70 317.5t193 254.5q-40 5 -73 5q-118 0 -225 -45.5t-184.5 -123t-123.5 -184.5t-46 -224z" />
<glyph unicode="&#xf081;" d="M0 758q0 154 60 294t161.5 241.5t242 161.5t294.5 60q231 0 426 -131q153 -105 242 -270t89 -356q0 -192 -89 -357.5t-242 -269.5q-193 -131 -426 -131q-154 0 -294.5 60t-242 161.5t-161.5 242t-60 294.5zM179 758q0 -117 46 -224.5t123.5 -185t185 -123.5t224.5 -46 q150 0 285 76q-91 102 -140.5 231t-49.5 272q0 142 49.5 270.5t140.5 230.5q-135 76 -285 76q-118 0 -225 -45.5t-184.5 -123t-123.5 -184.5t-46 -224z" />
<glyph unicode="&#xf082;" d="M0 758q0 154 60 294t161.5 241.5t242 161.5t294.5 60q165 0 312 -67.5t253 -186.5q91 -103 141.5 -232t50.5 -271q0 -141 -49 -269.5t-138 -230.5q-106 -121 -254.5 -189.5t-315.5 -68.5q-154 0 -294.5 60t-242 161.5t-161.5 242t-60 294.5zM179 758q0 -117 46 -224.5 t123.5 -185t185 -123.5t224.5 -46q140 0 262 63t202 172q-85 161 -85 347q0 187 81 344q-81 107 -201 168.5t-259 61.5q-118 0 -225 -45.5t-184.5 -123t-123.5 -184.5t-46 -224z" />
<glyph unicode="&#xf083;" horiz-adv-x="1755" d="M0 239q0 -155 113.5 -268.5t268.5 -113.5h731q155 0 265.5 112t110.5 270q0 77 -22 131q133 85 210.5 226.5t77.5 302.5q0 130 -50.5 248.5t-136.5 204t-204 136.5t-247 51q-175 0 -322.5 -86t-232 -233t-84.5 -321v-36q-161 -92 -212 -266q-121 -38 -193.5 -135 t-72.5 -223zM211 239q0 67 43 115t109 54l67 9q20 0 20 24l11 60q11 92 77.5 154t157.5 62q93 0 161.5 -62t79.5 -154l9 -69q10 -24 27 -24h140q69 0 119.5 -50t50.5 -119q0 -72 -50.5 -123t-119.5 -51h-731q-72 0 -121.5 51t-49.5 123zM683 921q11 175 135.5 294t298.5 119 q178 0 302.5 -127t124.5 -308q0 -112 -54 -207.5t-147 -154.5q-94 78 -217 78q-47 140 -164.5 223t-265.5 83h-13z" />
</font>
</defs>
</svg>
